<?xml version="1.0" standalone="no"?>
<!DOCTYPE svg PUBLIC "-//W3C//DTD SVG 1.1//EN" "http://www.w3.org/Graphics/SVG/1.1/DTD/svg11.dtd" >
<svg xmlns="http://www.w3.org/2000/svg">
<metadata>Generated by IcoMoon</metadata>
<defs>
<font id="icomoon" horiz-adv-x="1024">
<font-face units-per-em="1024" ascent="960" descent="-64" />
<missing-glyph horiz-adv-x="1024" />
<glyph unicode="&#x20;" horiz-adv-x="512" d="" />
<glyph unicode="&#xe900;" glyph-name="1" horiz-adv-x="1078" d="M538.575 811.789c-215.798 0-390.737-174.939-390.737-390.737 0-215.8 174.939-390.737 390.737-390.737 215.8 0 390.737 174.937 390.737 390.737 0 215.798-174.937 390.737-390.737 390.737zM66.997 421.053c0 260.446 211.133 471.579 471.579 471.579s471.579-211.133 471.579-471.579c0-260.446-211.133-471.579-471.579-471.579s-471.579 211.133-471.579 471.579zM538.575 730.947c22.323 0 40.421-18.097 40.421-40.421v-247.070l142.686-89.179c18.933-11.83 24.684-36.767 12.854-55.7s-36.767-24.684-55.7-12.854l-161.684 101.053c-11.818 7.389-18.998 20.34-18.998 34.277v269.474c0 22.324 18.097 40.421 40.421 40.421zM243.789 934.687c15.786-15.785 15.786-41.379 0-57.164l-134.737-134.737c-15.785-15.785-41.378-15.785-57.164 0s-15.785 41.379 0 57.164l134.737 134.737c15.786 15.785 41.379 15.785 57.164 0zM833.364 934.687c-15.786-15.785-15.786-41.379 0-57.164l134.737-134.737c15.786-15.785 41.375-15.785 57.161 0s15.786 41.379 0 57.164l-134.737 134.737c-15.786 15.785-41.375 15.785-57.161 0z" />
<glyph unicode="&#xe901;" glyph-name="2" horiz-adv-x="1081" d="M161.188 569.96c101.679-221.408 282.613-397.427 507.54-492.807l0.705-0.302 43.457-19.371c55.33-24.65 120.366-7.14 155.841 41.956l72.499 100.341c4.426 6.127 3.288 14.649-2.6 19.399l-126.561 102.104c-6.292 5.074-15.542 3.891-20.355-2.6l-49.26-66.469c-11.964-16.145-33.57-21.754-51.871-13.471-168.187 76.117-303.338 211.267-379.452 379.453-8.284 18.305-2.674 39.908 13.468 51.871l66.468 49.258c6.494 4.813 7.677 14.065 2.601 20.357l-102.118 126.58c-4.746 5.883-13.265 7.026-19.394 2.602l-100.88-72.826c-49.424-35.68-66.83-101.264-41.602-156.757l31.479-69.243c0.011-0.024 0.022-0.049 0.034-0.074zM635.051-1.257c-244.394 103.743-440.965 295.060-551.446 535.685l-0.067 0.145-31.545 69.388c-42.047 92.487-13.037 201.794 69.337 261.261l100.881 72.827c42.901 30.971 102.534 22.972 135.756-18.21l102.118-126.58c35.531-44.042 27.255-108.804-18.208-142.496l-38.087-28.225c64.336-124.837 166.306-226.803 291.137-291.143l28.228 38.093c33.695 45.461 98.452 53.736 142.495 18.204l126.566-102.104c41.193-33.229 49.18-92.888 18.182-135.788l-72.494-100.335c-59.13-81.835-167.526-111.019-259.743-69.928l-43.11 19.206z" />
<glyph unicode="&#xe902;" glyph-name="3" d="M145.949 947.81c-74.059 0-134.095-60.037-134.095-134.095s60.036-134.095 134.095-134.095c74.059 0 134.095 60.037 134.095 134.095s-60.036 134.095-134.095 134.095zM84.997 813.714c0 33.663 27.29 60.952 60.952 60.952s60.952-27.289 60.952-60.952c0-33.663-27.289-60.952-60.952-60.952s-60.952 27.289-60.952 60.952zM11.854 618.667c0 20.198 16.374 36.571 36.571 36.571h195.047c20.198 0 36.571-16.374 36.571-36.571v-633.905c0-20.197-16.373-36.571-36.571-36.571h-195.047c-20.198 0-36.571 16.374-36.571 36.571v633.905zM84.997 582.095v-560.762h121.905v560.762h-121.905zM353.187 618.667c0 20.198 16.374 36.571 36.571 36.571h195.048c20.197 0 36.571-16.374 36.571-36.571v-21.164l21.226 9.096c36.489 15.639 75.513 25.445 114.981 29.033 135.309 12.301 253.889-94.028 253.889-230.553v-420.318c0-20.197-16.374-36.571-36.571-36.571h-195.048c-20.197 0-36.571 16.374-36.571 36.571v341.333c0 16.165-6.422 31.671-17.852 43.101s-26.936 17.852-43.101 17.852c-16.165 0-31.671-6.422-43.101-17.852s-17.852-26.936-17.852-43.101v-341.333c0-20.197-16.374-36.571-36.571-36.571h-195.048c-20.198 0-36.571 16.374-36.571 36.571v633.905zM426.33 582.095v-560.762h121.905v304.762c0 35.562 14.126 69.671 39.278 94.818 25.147 25.151 59.255 39.278 94.818 39.278s69.671-14.126 94.818-39.278c25.151-25.147 39.278-59.255 39.278-94.818v-304.762h121.905v383.746c0 92.859-80.994 166.177-174.124 157.71-31.895-2.899-63.425-10.833-92.789-23.42l-72.207-30.944c-11.298-4.843-24.274-3.684-34.538 3.083-10.26 6.767-16.438 18.238-16.438 30.531v40.054h-121.905z" />
<glyph unicode="&#xe903;" glyph-name="4" horiz-adv-x="1186" d="M755.313 941.479c27.4 4.693 58.082 6.26 86.954 1.375 51.572-8.725 99.204-32.693 136.86-68.628 24.614-0.557 48.802 4.292 70.209 11.205 18.114 5.85 33.415 12.914 44.134 18.5 5.33 2.777 9.453 5.146 12.126 6.75 1.337 0.801 2.312 1.407 2.889 1.773l0.512 0.327c15.996 10.656 37.295 8.582 50.925-4.972 13.63-13.558 15.829-34.842 5.249-50.897-11.194-16.992-26.732-47.286-44.145-81.226-2.738-5.337-5.524-10.764-8.343-16.243-9.987-19.4-20.227-39.008-29.771-55.83-5.988-10.562-12.401-21.286-18.863-30.553v-14.755c0.41-54.198-5.804-108.113-18.421-160.565-7.939-33.002-18.405-65.424-31.356-96.972-33.544-81.742-83.041-155.977-145.597-218.376-62.561-62.394-136.92-111.702-218.748-145.036-81.753-33.307-169.319-50.004-257.59-49.12-127.963-0.108-253.234 36.756-360.739 106.173-15.834 10.224-22.501 30.030-16.069 47.751 6.432 17.715 24.254 28.634 42.96 26.322 16.188-2.005 32.486-2.986 48.797-2.932 58.608 0.167 116.1 13.113 168.585 37.511-16.683 7.594-32.611 16.961-47.494 27.993-43.747 32.439-76.294 77.711-93.113 129.509-4.371 13.463-1.383 28.23 7.877 38.928 0.166 0.194 0.334 0.383 0.503 0.571-9.891 8.823-19.147 18.421-27.667 28.752-38.336 46.468-59.445 104.751-59.757 164.992l-0.001 0.209 0.001 2.695c0 14.328 7.586 27.587 19.938 34.847 3.131 1.841 6.451 3.226 9.865 4.155-18.234 36.383-27.717 76.559-27.647 117.317-0.022 46.175 12.040 91.553 34.986 131.624 6.624 11.568 18.526 19.126 31.812 20.202s26.25-4.467 34.65-14.817c51.877-63.92 116.62-116.212 190.024-153.478 37.734-19.157 77.322-34.123 118.056-44.711 22.837-5.935 46.034-10.494 69.466-13.643-1.033 38.98 6.667 77.939 22.819 113.937 23.698 52.807 64.248 96.256 115.302 123.532 21.617 11.551 50.316 20.752 79.823 25.805zM147.477 534.709c6.987-19.666 17.382-38.115 30.859-54.45 26.48-32.096 63.233-54.062 104.043-62.181 18.178-3.616 31.567-19.133 32.485-37.64 0.917-18.513-10.872-35.279-28.604-40.674-14.686-4.468-29.732-7.583-44.949-9.313 10.056-12.962 21.884-24.571 35.218-34.46 30.245-22.426 66.729-34.87 104.375-35.592 17.080-0.329 32.11-11.361 37.544-27.556s0.1-34.061-13.326-44.625c-56.545-44.49-121.93-75.517-191.214-91.357 57.424-18.389 117.648-27.853 178.565-27.783h0.469c77.611-0.803 154.607 13.862 226.487 43.143 71.879 29.286 137.2 72.596 192.156 127.407 54.951 54.816 98.433 120.029 127.898 191.831 11.377 27.714 20.572 56.196 27.546 85.186 11.092 46.121 16.556 93.531 16.179 141.188v28.88c0 9.801 3.562 19.268 10.019 26.639 3.735 4.26 10.267 14.099 19.375 30.154 8.655 15.259 18.238 33.579 28.203 52.936 0.604 1.171 1.207 2.348 1.816 3.53-25.848-5.613-55.14-8.555-85.854-5.236-9.723 1.051-18.739 5.594-25.368 12.785-27.104 29.391-63.197 48.955-102.616 55.624-17.489 2.959-38.637 2.281-59.823-1.347-23.018-3.943-43.051-10.843-55.377-17.427-35.258-18.84-63.272-48.851-79.64-85.326s-20.167-77.351-10.801-116.218c2.991-12.391-0.043-25.465-8.181-35.275s-20.426-15.209-33.156-14.565c-45.454 2.299-90.428 9.233-134.238 20.619-46.344 12.045-91.386 29.072-134.317 50.869-63.207 32.089-120.769 73.971-170.613 123.968-2.274-11.62-3.428-23.479-3.42-35.413v-0.103c-0.057-29.681 7.227-58.915 21.203-85.1s34.209-48.507 58.899-64.981c14.984-9.997 21.544-28.703 16.087-45.869s-21.614-28.65-39.621-28.161c-16.309 0.444-32.48 2.427-48.307 5.893z" />
<glyph unicode="&#xe904;" glyph-name="5" horiz-adv-x="614" d="M229.416 868.47c50.41 50.41 118.78 78.73 190.070 78.73h138.24c21.207 0 38.4-17.192 38.4-38.4v-184.32c0-21.208-17.193-38.4-38.4-38.4h-138.24c-2.037 0-3.99-0.809-5.43-2.249s-2.25-3.394-2.25-5.431v-99.84h145.92c11.827 0 22.989-5.448 30.269-14.768 7.276-9.32 9.851-21.474 6.984-32.945l-46.080-184.32c-4.275-17.096-19.63-29.087-37.253-29.087h-99.84v-330.24c0-21.207-17.192-38.4-38.4-38.4h-184.32c-21.208 0-38.4 17.193-38.4 38.4v330.24h-99.84c-21.208 0-38.4 17.193-38.4 38.4v184.32c0 21.208 17.192 38.4 38.4 38.4h99.84v99.84c0 71.29 28.32 139.66 78.73 190.070zM419.487 870.4c-50.921 0-99.758-20.229-135.764-56.236s-56.236-84.843-56.236-135.764v-138.24c0-21.208-17.192-38.4-38.4-38.4h-99.84v-107.52h99.84c21.208 0 38.4-17.193 38.4-38.4v-330.24h107.52v330.24c0 21.207 17.192 38.4 38.4 38.4h108.258l26.88 107.52h-135.138c-21.208 0-38.4 17.192-38.4 38.4v138.24c0 22.406 8.901 43.893 24.744 59.737s37.331 24.743 59.736 24.743h99.84v107.52h-99.84z" />
<glyph unicode="&#xe905;" glyph-name="6" horiz-adv-x="647" d="M255.631 959.91c0.894 0.060 1.79 0.090 2.686 0.090h136.776c22.254 0 40.295-18.097 40.295-40.421v-200.155h147.069c22.253 0 40.297-18.097 40.297-40.421v-140.963c0-22.324-18.044-40.421-40.297-40.421h-147.069v-252.311c0-2.010-0.15-4.021-0.448-6.015-0.949-6.327-0.437-12.784 1.496-18.885 1.933-6.095 5.235-11.668 9.653-16.282 4.417-4.619 9.832-8.154 15.827-10.342 5.995-2.183 12.409-2.959 18.751-2.269 1 0.108 2.003 0.183 3.008 0.216 21.249 0.717 42.196 5.255 61.844 13.404 10.359 4.295 22.032 4.069 32.213-0.625 10.186-4.694 17.963-13.431 21.461-24.113l43.563-132.974c3.902-11.911 2.070-24.959-4.948-35.333-9.184-13.56-23.191-23.778-35.641-31.167-13.371-7.939-29.184-15.069-46.010-21.046-33.391-11.862-74.244-20.421-113.894-20.469-112.628-1.735-194.22 39.106-247.243 98.347-52.040 58.136-74.426 131.579-74.426 192.986v266.879h-53.387c-22.254 0-40.295 18.097-40.295 40.421v121.228c0 16.808 10.369 31.862 26.041 37.808 44.626 16.93 83.378 46.517 111.534 85.155 28.039 38.479 44.363 84.279 47.003 131.86 0.372 11.466 4.873 22.431 12.702 30.845 8.203 8.817 19.444 14.171 31.439 14.975zM288.839 879.158c-7.808-52.153-28.085-101.809-59.292-144.635-31.792-43.628-73.76-78.565-122.046-101.865v-54.197h53.387c22.255 0 40.295-18.097 40.295-40.421v-307.3c0-43.374 16.258-97.032 53.801-138.978 36.51-40.788 95.336-72.984 186.301-71.518l0.648 0.011c29.103 0 60.954 6.457 87.313 15.823 11.237 3.994 20.83 8.284 28.332 12.396l-22.534 68.786c-15.492-3.541-31.306-5.648-47.243-6.273-18.084-1.735-36.334 0.593-53.421 6.823-17.586 6.413-33.471 16.788-46.43 30.332-12.959 13.538-22.647 29.885-28.317 47.772-5.336 16.831-6.98 34.611-4.837 52.116v290.011c0 22.324 18.041 40.421 40.295 40.421h147.067v60.121h-147.067c-22.254 0-40.295 18.097-40.295 40.421v200.155h-65.959z" />
<glyph unicode="&#xe906;" glyph-name="7" horiz-adv-x="1434" d="M866.551 803.294c-29.993 29.992-29.993 78.619 0 108.612 29.992 29.992 78.619 29.992 108.612 0l409.603-409.6c29.993-29.992 29.993-78.62 0-108.612l-409.603-409.6c-29.993-29.992-78.62-29.992-108.612 0-29.993 29.992-29.993 78.62 0 108.612l278.496 278.494h-992.19c-42.416 0-76.8 34.385-76.8 76.8s34.384 76.8 76.8 76.8h992.19l-278.496 278.494z" />
<glyph unicode="&#xe907;" glyph-name="8" horiz-adv-x="1180" d="M589.909 433.791c-37.779 0-68.405-30.627-68.405-68.405s30.627-68.405 68.405-68.405c37.779 0 68.405 30.627 68.405 68.405s-30.627 68.405-68.405 68.405zM439.416 365.385c0 83.115 67.377 150.492 150.492 150.492s150.492-67.377 150.492-150.492c0-83.115-67.377-150.492-150.492-150.492s-150.492 67.377-150.492 150.492zM589.909 652.689c-56.823 0-112.371-16.849-159.617-48.42-47.246-31.568-84.073-76.439-105.817-128.937s-27.434-110.265-16.348-165.997c11.086-55.732 38.449-106.923 78.628-147.104 16.030-16.028 16.030-42.015 0-58.045-16.028-16.028-42.015-16.028-58.043 0-51.661 51.661-86.842 117.48-101.096 189.135s-6.937 145.927 21.021 213.424c27.957 67.499 75.304 125.188 136.050 165.779 60.748 40.588 132.165 62.253 205.223 62.253 73.060 0 144.477-21.664 205.223-62.253s108.092-98.28 136.050-165.779c27.96-67.497 35.275-141.768 21.021-213.424-14.251-71.656-49.432-137.474-101.093-189.135-16.030-16.028-42.017-16.028-58.045 0-16.028 16.030-16.028 42.017 0 58.045 40.181 40.181 67.544 91.372 78.63 147.104s5.396 113.499-16.351 165.997c-21.744 52.498-58.568 97.369-105.815 128.937-47.249 31.57-102.796 48.42-159.619 48.42zM589.913 866.087c-99.030 0-195.836-29.366-278.174-84.384-82.341-55.017-146.517-133.218-184.414-224.707-37.897-91.492-47.813-192.167-28.493-289.293s67.007-186.344 137.031-256.367c16.028-16.030 16.028-42.017 0-58.045s-42.015-16.028-58.044 0c-81.505 81.504-137.010 185.348-159.497 298.398s-10.946 230.229 33.164 336.72c44.11 106.492 118.808 197.51 214.647 261.548s208.515 98.218 323.78 98.218c115.265 0 227.942-34.18 323.78-98.218 95.84-64.038 170.538-155.056 214.648-261.548s55.65-223.671 33.164-336.72c-22.488-113.050-77.993-216.894-159.497-298.398-16.030-16.028-42.017-16.028-58.045 0s-16.028 42.015 0 58.045c70.024 70.024 117.711 159.241 137.031 256.367s9.405 197.801-28.492 289.293c-37.897 91.49-102.075 169.69-184.413 224.707-82.341 55.018-179.147 84.384-278.176 84.384z" />
<glyph unicode="&#xe908;" glyph-name="9" d="M511.994 626.112c-98.368 0-178.112-79.744-178.112-178.114s79.744-178.112 178.112-178.112c98.37 0 178.114 79.743 178.114 178.112s-79.744 178.114-178.114 178.114zM511.994 958.59c19.674 0 35.624-15.949 35.624-35.623v-60.876c201.11-17.072 361.397-177.359 378.47-378.469h60.876c19.674 0 35.622-15.949 35.622-35.624s-15.947-35.622-35.622-35.622h-60.876c-17.074-201.112-177.361-361.399-378.47-378.47v-60.876c0-19.674-15.949-35.624-35.624-35.624-19.672 0-35.622 15.949-35.622 35.624v60.876c-201.11 17.072-361.397 177.359-378.47 378.47h-60.876c-19.674 0-35.623 15.947-35.623 35.622s15.949 35.624 35.623 35.624h60.876c17.072 201.11 177.36 361.397 378.47 378.469v60.876c0 19.674 15.949 35.623 35.622 35.623zM167.643 447.998c0-190.18 154.171-344.352 344.351-344.352 190.182 0 344.354 154.172 344.354 344.352s-154.172 344.352-344.354 344.352c-190.18 0-344.351-154.172-344.351-344.352z" />
<glyph unicode="&#xe909;" glyph-name="10" horiz-adv-x="1004" d="M946.588 551.506c67.713-52.394 67.713-154.62 0-207.014-204.632-158.337-433.134-283.14-676.952-369.734l-44.542-15.821c-85.215-30.265-175.225 27.39-186.761 115.356-32.233 245.774-32.233 501.637 0 747.411 11.536 87.965 101.547 145.62 186.761 115.355l44.544-15.82c243.816-86.595 472.318-211.397 676.95-369.734zM883.923 425.478c14.733 11.399 14.733 33.64 0 45.040-196.049 151.697-414.968 271.264-648.559 354.227l-44.541 15.82c-22.183 7.879-47.676-7.137-50.96-32.176-31.073-236.936-31.073-483.845 0-720.782 3.284-25.037 28.777-40.053 50.96-32.174l44.541 15.819c233.591 82.962 452.51 202.531 648.559 354.226z" />
<glyph unicode="&#xe90a;" glyph-name="11" horiz-adv-x="819" d="M307.191 601.596c0 56.554 45.846 102.4 102.4 102.4s102.4-45.846 102.4-102.4c0-56.554-45.846-102.4-102.4-102.4s-102.4 45.846-102.4 102.4zM358.391 422.395c-84.831 0-153.6-68.767-153.6-153.6 0-28.278 22.923-51.2 51.2-51.2h307.199c28.278 0 51.2 22.922 51.2 51.2 0 84.833-68.767 153.6-153.599 153.6h-102.4zM181.42 914.802c151.337 21.747 305.006 21.747 456.343 0 75.034-10.782 132.844-71.679 139.709-147.171l6.502-71.461c15.017-165.109 15.017-331.242 0-496.347l-6.502-71.465c-6.866-75.489-64.676-136.387-139.709-147.169-151.337-21.745-305.006-21.745-456.344 0-75.033 10.783-132.842 71.68-139.71 147.169l-6.501 71.465c-15.020 165.105-15.020 331.238 0 496.347l6.501 71.461c6.867 75.492 64.677 136.389 139.71 147.171zM626.842 838.783c-144.095 20.705-290.406 20.705-434.499 0-39.823-5.723-70.505-38.043-74.15-78.11l-6.5-71.461c-14.599-160.48-14.599-321.955 0-482.431l6.5-71.465c3.645-40.064 34.327-72.387 74.15-78.111 144.092-20.705 290.404-20.705 434.499 0 39.818 5.724 70.502 38.047 74.148 78.111l6.502 71.465c14.597 160.476 14.597 321.951 0 482.431l-6.502 71.461c-3.645 40.067-34.33 72.387-74.148 78.11z" />
<glyph unicode="&#xe90b;" glyph-name="12" d="M432.406 794.118c-195.755-20.118-348.446-185.525-348.446-386.594 0-214.646 174.004-388.65 388.649-388.65 201.069 0 366.476 152.689 386.594 348.444h-386.594c-22.205 0-40.204 18.001-40.204 40.206v386.594zM3.55 407.523c0 259.054 210.005 469.059 469.060 469.059 22.205 0 40.206-18.001 40.206-40.205v-388.65h388.647c22.205 0 40.206-17.999 40.206-40.204 0-259.056-210.007-469.060-469.060-469.060s-469.060 210.004-469.060 469.060zM660.233 853.872v-258.726h258.728c-30.184 127.82-130.907 228.544-258.728 258.726zM633.326 940.286c194.072-24.151 347.897-177.976 372.048-372.050 3.658-29.378-20.695-53.5-50.302-53.5h-348.444c-14.803 0-26.805 11.999-26.805 26.803v348.445c0 29.606 24.122 53.958 53.503 50.302z" />
<glyph unicode="&#xe90c;" glyph-name="13" horiz-adv-x="1082" d="M620.655 589.312c0 22.551-18.321 40.832-40.921 40.832h-327.364c-22.599 0-40.92-18.281-40.92-40.832s18.321-40.832 40.92-40.832h327.364c22.6 0 40.921 18.281 40.921 40.832zM566.095 425.984c0 22.551-18.321 40.832-40.921 40.832h-272.804c-22.599 0-40.92-18.281-40.92-40.832s18.321-40.832 40.92-40.832h272.804c22.6 0 40.921 18.281 40.921 40.832zM579.734 303.488c22.6 0 40.921-18.281 40.921-40.832s-18.321-40.832-40.921-40.832h-327.364c-22.599 0-40.92 18.281-40.92 40.832s18.321 40.832 40.92 40.832h327.364zM211.45-64h709.287c82.866 0 150.042 67.030 150.042 149.717v299.433c0 22.551-18.321 40.833-40.92 40.833h-177.322v425.022c0 77.494-87.783 122.57-150.978 77.528l-9.552-6.807c-42.584-30.351-100.265-30.249-143.050 0.244-71.139 50.704-167.391 50.704-238.531 0-42.783-30.494-100.466-30.596-143.050-0.244l-9.551 6.807c-63.196 45.042-150.978-0.034-150.978-77.528v-710.847c0-112.754 91.604-204.16 204.603-204.16zM357.996 855.519c42.683 30.422 100.71 30.422 143.393 0 71.040-50.632 166.948-51.020 238.188-0.244l9.551 6.807c9.029 6.435 21.569-0.005 21.569-11.075v-765.289c0-24.505 5.9-47.636 16.359-68.054h-575.606c-67.799 0-122.762 54.843-122.762 122.496v710.847c0 11.071 12.54 17.51 21.568 11.075l9.551-6.807c71.239-50.776 167.149-50.388 238.188 0.244zM852.538 85.717v258.602h136.401v-258.602c0-37.585-30.534-68.054-68.201-68.054-37.666 0-68.2 30.469-68.2 68.054z" />
<glyph unicode="&#xe90d;" glyph-name="14" horiz-adv-x="1317" d="M13.712 575.206c0 217.68 208.745 382.051 449.918 382.051 191.921 0 362.083-103.337 424.606-255.049 2.804-6.804-2.076-14.185-9.411-14.792-20.423-1.69-40.707-4.589-60.7-8.647-5.104-1.037-10.253 1.567-12.535 6.249-52.863 108.522-182.714 189.953-341.96 189.953-210.349 0-367.632-140.888-367.632-299.766 0-85.832 44.649-165.092 119.726-221.131 10.404-7.766 16.532-19.987 16.532-32.97v-51.605l84.9 23.6c7.393 2.055 15.215 2.003 22.581-0.154 33.502-9.81 69.315-15.773 106.663-17.181 5.927-0.224 10.701-4.993 10.957-10.917 1.018-23.473 4.162-46.147 9.223-67.947 0.442-1.905-0.993-3.739-2.949-3.745-47.124 0-92.653 6.145-135.488 17.592l-126.009-35.030c-12.389-3.444-25.675-0.898-35.913 6.883-10.237 7.779-16.249 19.899-16.249 32.758v85.753c-82.826 68.362-136.258 165.088-136.258 274.094zM376.035 682.53c0-32.252-26.144-58.397-58.396-58.397s-58.396 26.146-58.396 58.397c0 32.252 26.144 58.396 58.396 58.396s58.396-26.144 58.396-58.396zM609.621 624.132c32.25 0 58.396 26.146 58.396 58.397s-26.146 58.396-58.396 58.396c-32.252 0-58.397-26.144-58.397-58.396s26.146-58.397 58.397-58.397zM797.946 302.953c28.22 0 51.096 22.876 51.096 51.096s-22.876 51.098-51.096 51.098c-28.22 0-51.098-22.878-51.098-51.098s22.878-51.096 51.098-51.096zM1097.229 354.049c0-28.22-22.878-51.096-51.098-51.096s-51.096 22.876-51.096 51.096c0 28.22 22.876 51.098 51.096 51.098s51.098-22.878 51.098-51.098zM920.806 594.732c203.545 0 381.788-138.933 381.788-325.233 0-92.1-44.36-161.533-113.288-219.477v-68.248c0-12.859-6.012-24.978-16.251-32.758-10.237-7.779-23.524-10.326-35.912-6.883l-103.213 28.692c-35.745-9.386-73.662-14.412-112.864-14.412-203.546 0-381.788 138.933-381.788 325.233s177.983 313.085 381.528 313.085zM1220.567 281.647c0 127.498-126.781 242.947-299.501 242.947s-299.502-115.449-299.502-242.947c0-127.497 126.781-242.947 299.502-242.947 35.664 0 69.759 5.070 101.317 14.311 7.365 2.156 15.187 2.21 22.581 0.154l62.056-17.25v33.981c0 12.983 6.128 25.205 16.532 32.97 61.139 45.635 97.015 109.777 97.015 178.782z" />
<glyph unicode="&#xe90e;" glyph-name="15" horiz-adv-x="958" d="M943.512 356.763c-87.112 195.938-194.321 382.31-319.903 556.118-44.782 61.979-140.003 51.649-170.451-18.492l-101.54-233.907c-30.941-71.276-84.021-130.688-151.374-169.432l-165.529-95.22c-29.843-17.167-40.119-55.276-22.952-85.118l103.611-180.118c17.167-29.842 55.276-40.118 85.118-22.952l26.987 15.524 41.908-157.402c4.671-17.54 21.259-29.195 39.344-27.641l201.816 17.332c11.015 0.946 21.048 6.717 27.403 15.764s8.384 20.44 5.539 31.124l-62.598 235.109c-0.665 2.497-1.568 4.869-2.677 7.095 36.142 6.93 73.357 8.346 110.373 3.988l253.246-29.82c75.941-8.942 132.742 68.177 101.678 138.048zM562.975 869.071c122.553-169.614 227.174-351.488 312.183-542.698 7.508-16.888-6.22-35.527-24.576-33.366l-253.246 29.82c-93.135 10.966-187.326-8.362-268.614-55.123l-154.721-89.003-91.178 158.503 154.722 89.003c81.288 46.761 145.349 118.465 182.692 204.487l101.54 233.908c7.36 16.953 30.374 19.45 41.198 4.47zM407.611 223.354c-14.228-5.91-28.121-12.747-41.588-20.493l-71.413-41.080 38.992-146.444 126.134 10.833-51.13 192.033c-0.457 1.717-0.787 3.438-0.996 5.151z" />
<glyph unicode="&#xe90f;" glyph-name="16" horiz-adv-x="1117" d="M282.179 760.381l-99.727-8.051c-76.357-6.163-138.643-63.656-150.889-139.275-27.065-167.129-27.065-337.524 0-504.655 12.246-75.619 74.532-133.111 150.889-139.275l108.912-8.791c177.83-14.355 356.526-14.355 534.356 0l108.912 8.791c76.356 6.164 138.642 63.656 150.89 139.275 27.065 167.131 27.065 337.526 0 504.655-12.248 75.619-74.533 133.112-150.89 139.275l-99.725 8.051v68.059c0 50.4-36.873 93.215-86.714 100.692l-70.977 10.646c-78.676 11.801-158.67 11.801-237.345 0l-70.977-10.646c-49.842-7.476-86.714-50.292-86.714-100.692v-68.059zM452.816 853.471c70.091 10.514 141.36 10.514 211.453 0l70.976-10.646c7.121-1.068 12.389-7.185 12.389-14.385v-61.94c-125.958 7.184-252.224 7.184-378.182 0v61.94c0 7.2 5.267 13.316 12.387 14.384l70.977 10.646zM298.386 674.132c173.155 13.976 347.156 13.976 520.311 0l108.912-8.791c36.315-2.932 65.936-30.275 71.761-66.237 3.627-22.396 6.74-44.854 9.337-67.356-283.788-139.742-616.543-139.742-900.331-0.002 2.598 22.503 5.71 44.961 9.337 67.357 5.824 35.963 35.446 63.305 71.761 66.237l108.912 8.791zM100.586 438.885c290.875-132.288 625.036-132.288 915.911 0.002 5.547-105.669-0.163-211.78-17.127-316.534-5.824-35.964-35.446-63.306-71.761-66.237l-108.912-8.792c-173.155-13.976-347.156-13.976-520.311 0l-108.912 8.792c-36.315 2.931-65.937 30.273-71.761 66.237-16.964 104.754-22.673 210.865-17.127 316.532z" />
<glyph unicode="&#xe910;" glyph-name="17" horiz-adv-x="910" d="M213.323 704.009c0 133.53 108.248 241.778 241.778 241.778 133.528 0 241.777-108.248 241.777-241.778s-108.248-241.778-241.777-241.778c-133.53 0-241.778 108.248-241.778 241.778zM455.101 860.454c-86.402 0-156.444-70.043-156.444-156.444s70.042-156.444 156.444-156.444c86.402 0 156.443 70.043 156.443 156.444s-70.042 156.444-156.443 156.444zM227.545 291.567c-70.692 0-128-57.31-128-128v-67.601c0-1.030 0.746-1.906 1.762-2.076 234.311-38.252 473.276-38.252 707.585 0 1.018 0.171 1.764 1.047 1.764 2.076v67.601c0 70.69-57.304 128-128 128h-19.393c-1.496 0-2.987-0.239-4.415-0.705l-49.237-16.077c-100.397-32.785-208.621-32.785-309.020 0l-49.238 16.077c-1.426 0.466-2.916 0.705-4.415 0.705h-19.392zM14.212 163.567c0 117.817 95.513 213.333 213.334 213.333h19.392c10.495 0 20.925-1.661 30.902-4.921l49.238-16.077c83.188-27.164 172.859-27.164 256.046 0l49.237 16.077c9.978 3.26 20.412 4.921 30.902 4.921h19.393c117.823 0 213.333-95.516 213.333-213.333v-67.601c0-42.854-31.056-79.388-73.347-86.295-243.416-39.737-491.667-39.737-735.085 0-42.291 6.906-73.345 43.44-73.345 86.295v67.601z" />
<glyph unicode="&#xe911;" glyph-name="18" horiz-adv-x="652" d="M640.005 517.823l-7.638 283.83c-0.102 3.897-0.372 7.754-0.805 11.563l-0.363 3.458c-3.831 38.165-24.995 71.446-55.808 91.478-2.378 1.588-4.817 3.098-7.312 4.527-2.365 1.397-4.776 2.722-7.233 3.971-15.183 8.001-32.126 13.187-50.157 14.847-122.992 11.322-246.766 11.322-369.761 0-18.060-1.662-35.025-6.862-50.227-14.885-2.459-1.251-4.871-2.578-7.235-3.977-2.416-1.387-4.782-2.851-7.093-4.388-30.977-20.076-52.234-53.531-55.986-91.89l-0.138-1.319-0.174-1.637c-0.443-3.87-0.722-7.789-0.828-11.749l-7.634-283.83 0.305-11.356-0.303-11.918 0.289-11.37-0.286-11.902 0.272-11.32-0.273-11.953 7.558-330.612c1.793-78.443 61.453-143.402 139.46-151.85 111.124-12.037 223.222-12.037 334.346 0 78.006 8.448 137.667 73.407 139.459 151.85l7.559 330.612-0.27 11.874 0.275 11.399-0.289 11.948 0.289 11.324-0.307 11.969 0.307 11.304zM561.99 805.441l7.308-319.613-5.921-220.169c-1.331-49.496-39.457-90.177-88.762-94.715-98.995-9.114-198.619-9.114-297.615 0-49.304 4.538-87.43 45.219-88.761 94.715l-5.921 220.141 7.307 319.642c0.016 0.687 0.044 1.372 0.086 2.054 2.769 18.724 13.62 34.887 29.005 44.702 5.828 3.038 12.295 5.053 19.175 5.799 124.913 13.528 250.921 13.528 375.835 0 6.875-0.745 13.34-2.759 19.167-5.795 15.393-9.817 26.247-25.988 29.012-44.721 0.042-0.676 0.070-1.356 0.084-2.039zM325.81-3.486c-38.56 0-69.818 31.26-69.818 69.818s31.259 69.818 69.818 69.818c38.559 0 69.818-31.26 69.818-69.818s-31.259-69.818-69.818-69.818z" />
<glyph unicode="&#xe912;" glyph-name="19" horiz-adv-x="1280" d="M51.425 681.399c-17.929-166.586-17.13-358.713 7.819-524.625 13.805-91.795 88.728-162.176 181.212-170.214l96.655-8.403c201.539-17.517 404.221-17.517 605.757 0l96.653 8.403c92.486 8.038 167.411 78.419 181.216 170.214 24.947 165.913 25.747 358.028 7.821 524.614-2.323 19.313-4.928 38.6-7.821 57.854-13.805 91.801-88.73 162.178-181.216 170.217l-96.653 8.402c-201.536 17.519-404.218 17.519-605.757 0l-96.655-8.402c-92.484-8.039-167.407-78.417-181.212-170.217-2.895-19.251-5.501-38.534-7.819-57.844zM345.424 822.223c196.007 17.038 393.123 17.038 589.13 0l96.653-8.403c48.282-4.196 87.392-40.934 94.592-88.854 0.749-4.977 1.478-9.955 2.189-14.936l-355.904-197.724c-82.15-45.639-182.042-45.639-264.191 0l-355.9 197.722c0.708 4.981 1.436 9.961 2.184 14.938 7.206 47.92 46.316 84.657 94.593 88.854l96.655 8.403zM1139.731 606.737c12.416-145.137 7.77-291.364-13.933-435.684-7.2-47.923-46.31-84.659-94.592-88.851l-96.653-8.403c-196.006-17.037-393.123-17.037-589.13 0l-96.655 8.403c-48.277 4.192-87.387 40.934-94.593 88.851-21.702 144.32-26.346 290.547-13.932 435.682l321.025-178.348c111.144-61.747 246.289-61.747 357.431 0l321.030 178.35z" />
<glyph unicode="&#xe913;" glyph-name="20" horiz-adv-x="1138" d="M482.769 896.618c38.367 66.12 133.849 66.12 172.221 0l117.493-202.488c10.832-18.665 29.548-31.402 50.887-34.624l195.106-29.468c85.049-12.846 114.881-120.227 48.651-175.102l-142.165-117.778c-19.951-16.532-29.332-42.61-24.485-68.062l39.822-209.124c15.599-81.914-70.4-145.562-144.185-106.712l-194.105 102.207c-20.736 10.917-45.524 10.917-66.262 0l-194.107-102.207c-73.785-38.849-159.78 24.798-144.181 106.712l39.822 209.124c4.847 25.452-4.535 51.53-24.488 68.062l-142.16 117.778c-66.235 54.875-36.402 162.257 48.647 175.102l195.108 29.468c21.337 3.223 40.057 15.96 50.887 34.624l117.495 202.488zM581.183 853.791c-5.484 9.446-19.124 9.446-24.606 0l-117.495-202.488c-23.826-41.062-65.009-69.083-111.95-76.173l-195.109-29.469c-12.15-1.835-16.411-17.175-6.95-25.015l142.16-117.778c43.897-36.368 64.538-93.735 53.874-149.736l-39.821-209.124c-2.228-11.702 10.056-20.793 20.597-15.241l194.107 102.207c45.623 24.018 100.154 24.018 145.779 0l194.105-102.207c10.542-5.552 22.824 3.538 20.599 15.241l-39.822 209.124c-10.667 56.001 9.973 113.368 53.874 149.736l142.16 117.778c9.461 7.839 5.2 23.179-6.952 25.015l-195.106 29.469c-46.945 7.089-88.127 35.111-111.952 76.173l-117.493 202.488z" />
<glyph unicode="&#xe914;" glyph-name="21" horiz-adv-x="1434" d="M617.487 803.294c29.992 29.992 29.992 78.619 0 108.612-29.993 29.992-78.62 29.992-108.612 0l-409.6-409.6c-14.996-14.996-22.494-34.651-22.494-54.306 0-10.413 2.072-20.343 5.827-29.398 3.748-9.058 9.303-17.544 16.667-24.908l409.6-409.6c29.992-29.992 78.619-29.992 108.612 0s29.992 78.62 0 108.612l-278.494 278.494h992.186c42.414 0 76.8 34.385 76.8 76.8s-34.386 76.8-76.8 76.8h-992.186l278.494 278.494z" />
<glyph unicode="&#xe915;" glyph-name="22" horiz-adv-x="1434" d="M867.276 803.294c-29.993 29.992-29.993 78.619 0 108.612 29.992 29.992 78.619 29.992 108.612 0l409.595-409.6c29.993-29.992 29.993-78.62 0-108.612l-409.595-409.6c-29.993-29.992-78.62-29.992-108.612 0-29.993 29.992-29.993 78.62 0 108.612l278.498 278.494h-992.193c-42.416 0-76.8 34.385-76.8 76.8s34.384 76.8 76.8 76.8h992.193l-278.498 278.494z" />
<glyph unicode="&#xe916;" glyph-name="23" horiz-adv-x="878" d="M207.229 521.143c0 127.92 103.7 231.619 231.619 231.619 127.921 0 231.619-103.7 231.619-231.619 0-127.922-103.697-231.619-231.619-231.619-127.92 0-231.619 103.697-231.619 231.619zM438.848 679.619c-87.524 0-158.476-70.952-158.476-158.476s70.952-158.476 158.476-158.476c87.522 0 158.476 70.953 158.476 158.476s-70.953 158.476-158.476 158.476zM25.56 576.885c17.278 209.608 192.438 370.924 402.757 370.924h21.062c210.321 0 385.478-161.316 402.755-370.924 9.284-112.599-25.498-224.405-97.012-311.869l-233.721-285.833c-42.667-52.18-122.439-52.18-165.106 0l-233.719 285.833c-71.517 87.464-106.298 199.27-97.016 311.869zM428.317 874.667c-172.253 0-315.711-132.119-329.862-303.791-7.724-93.713 21.223-186.764 80.745-259.561l233.719-285.833c13.401-16.389 38.457-16.389 51.859 0l233.717 285.833c59.524 72.797 88.469 165.848 80.745 259.561-14.151 171.671-157.608 303.791-329.861 303.791h-21.062z" />
<glyph unicode="&#xe917;" glyph-name="24" horiz-adv-x="1280" d="M767.987 640.008c0 53.020 42.976 96 96 96 53.018 0 96-42.98 96-96s-42.982-96-96-96c-53.024 0-96 42.98-96 96zM337.107 917.86c201.539 17.519 404.218 17.519 605.754 0l96.659-8.402c92.48-8.039 167.405-78.417 181.21-170.218 29.037-193.069 29.037-389.395 0-582.466-13.805-91.802-88.73-162.176-181.21-170.214l-96.659-8.403c-201.536-17.523-404.216-17.523-605.754 0l-96.655 8.403c-92.484 8.038-167.407 78.413-181.212 170.214-29.033 193.071-29.033 389.396 0 582.467 13.805 91.801 88.728 162.178 181.212 170.217l96.655 8.402zM934.547 822.221c-196.006 17.038-393.12 17.038-589.127-0.001l-96.655-8.402c-48.277-4.196-87.387-40.934-94.593-88.854-16.482-109.608-23.125-220.319-19.928-330.815l247.799 247.799c9.348 9.348 22.137 14.427 35.351 14.038s25.683-6.209 34.466-16.090l234.969-264.344 161.978 53.991c18.112 6.038 38.080 0.766 50.854-13.426l225.222-250.25c0.346 1.715 0.653 3.437 0.915 5.184 27.61 183.604 27.61 370.307 0 553.912-7.206 47.92-46.317 84.657-94.592 88.854l-96.659 8.403zM1063.674 90.374l-214.336 238.155-162.176-54.059c-18.214-6.074-38.298-0.704-51.053 13.645l-222.179 249.955-271.596-271.594c3.122-31.878 7.069-63.699 11.839-95.424 7.206-47.923 46.316-84.659 94.593-88.858l96.655-8.403c196.007-17.037 393.121-17.037 589.127 0l96.659 8.403c11.437 0.998 22.362 3.814 32.467 8.179z" />
<glyph unicode="&#xe918;" glyph-name="25" d="M647.686 251.984l293.302-293.296c16.663-16.663 43.674-16.663 60.336 0s16.663 43.679 0 60.342l-293.296 293.296c120.758 150.771 111.252 371.467-28.513 511.231-149.961 149.962-393.097 149.962-543.058 0s-149.961-393.097 0-543.060c139.763-139.759 360.461-149.265 511.229-28.513zM196.797 340.838c-116.636 116.637-116.636 305.742 0 422.378s305.742 116.637 422.376 0c116.554-116.551 116.639-305.464 0.262-422.122-0.091-0.085-0.176-0.171-0.262-0.256s-0.171-0.171-0.256-0.256c-116.655-116.378-305.569-116.292-422.12 0.256z" />
<glyph unicode="&#xe919;" glyph-name="26" d="M16.006-63.906h630.642c4.244 0 8.313 1.686 11.314 4.687s4.685 7.070 4.685 11.314v153.013c0.247 23.243-6.946 45.955-20.528 64.819-13.582 18.862-32.839 32.889-54.96 40.030l-161.6 53.867v51.029c0 0.552-0.027 1.099-0.082 1.638 20.453 16.119 36.479 37.169 46.575 61.175 11.69 0.029 23.128 3.385 32.981 9.676 9.851 6.288 17.713 15.251 22.662 25.84s6.783 22.367 5.289 33.961c-1.496 11.592-6.259 22.52-13.732 31.508 2.384 11.024 6.38 31.37 8.106 43.077 0.527 3.586 1.049 6.953 1.542 10.138 4.641 29.909 7.44 47.961-10.547 81.832-19.546 36.768-49.419 67.018-85.943 87.017s-78.102 28.875-119.609 25.535c-41.505-3.339-81.128-18.75-113.985-44.333-32.856-25.581-57.51-60.217-70.924-99.637-0.285-0.838-0.499-1.697-0.642-2.568-5.334-32.553-0.8-66.535 13.446-101.090-7.459-8.982-12.212-19.899-13.705-31.479s0.336-23.345 5.273-33.926c4.937-10.579 12.779-19.538 22.612-25.832s21.253-9.665 32.928-9.718c10.385-24.57 26.935-46.042 48.050-62.339 0.399-0.311 0.821-0.6 1.229-0.907v-50.6l-161.599-53.864c-22.119-7.143-41.374-21.17-54.954-40.032-13.58-18.865-20.772-41.574-20.526-64.817v-153.013c0-4.244 1.686-8.313 4.686-11.314s7.070-4.687 11.314-4.687zM370.642 149.157l-6.437-36.778h-65.762l-5.751 32.893c-0.293 1.668-0.848 3.277-1.649 4.769l40.285 28.599 39.62-28.137c-0.115-0.437-0.226-0.884-0.307-1.346zM302.805 80.38h57.064l19.627-112.285h-96.34l19.648 112.285zM630.659 105.108v-137.013h-76.522v70.012c0 4.242-1.686 8.313-4.687 11.314-3.001 2.999-7.070 4.685-11.312 4.685-4.244 0-8.313-1.686-11.314-4.685-3.001-3.001-4.687-7.072-4.687-11.314v-70.012h-110.155l-20.263 115.844 8.065 46.099 45.8-32.526c2.393-1.699 5.21-2.708 8.138-2.913 2.928-0.207 5.858 0.395 8.466 1.743 2.61 1.346 4.798 3.385 6.326 5.893 1.526 2.508 2.334 5.385 2.334 8.322v104.446l106.201-35.399c15.711-5.076 29.389-15.044 39.031-28.446 9.644-13.402 14.76-29.537 14.581-46.049zM438.857 225.671v-84.127l-79.88 56.73 51.773 36.768 28.108-9.371zM481.978 411.47c3.202 18.505 2.995 37.441-0.61 55.873 5.814-1.964 10.873-5.686 14.48-10.654 3.605-4.965 5.578-10.93 5.645-17.065 0.067-6.138-1.776-12.144-5.27-17.186-3.496-5.043-8.474-8.875-14.244-10.967zM158.624 573.235c11.612 33.316 32.687 62.523 60.646 84.043 27.957 21.521 61.584 34.421 96.762 37.123 35.178 2.7 70.38-4.915 101.294-21.916 30.916-17 56.203-42.649 72.765-73.801 12.999-24.467 11.534-33.905 7.189-61.916-0.506-3.26-1.039-6.706-1.582-10.382-1.091-7.417-3.174-18.622-5.118-28.369-6.052 1.937-12.37 2.922-18.725 2.917h-0.571c-18.091 59.697-38.525 90.601-64.109 97.073-11.218 2.842-28.697 2.079-48.222-17.667-0.924-0.93-1.73-1.973-2.399-3.101-29.261-49.442-81.517-73.057-155.283-70.2-2.522 0.098-5.031-0.403-7.322-1.463s-4.297-2.648-5.856-4.633c-6.959 0-13.867-1.185-20.428-3.502-9.708 26.179-12.752 51.622-9.042 75.795zM158.484 439.296c0.010 5.975 1.823 11.807 5.203 16.733 3.38 4.928 8.168 8.719 13.739 10.877-3.169-18.305-3.091-37.025 0.23-55.304-5.627 2.127-10.474 5.916-13.898 10.861-3.424 4.947-5.264 10.819-5.274 16.833zM212.029 474.797h1.271c78.67 0 135.72 28.331 169.708 84.325 4.8 4.6 11.128 9.189 16.323 7.862 4.896-1.237 22.467-10.7 42.853-80.43 0.167-0.573 0.368-1.137 0.6-1.689 10.418-24.885 12.313-52.517 5.396-78.593-6.919-26.076-22.265-49.133-43.647-65.582-21.383-16.451-47.603-25.368-74.583-25.368-26.977 0.002-53.2 8.921-74.581 25.372-19.805 15.456-34.519 36.496-42.245 60.401s-8.108 49.576-1.095 73.701zM329.947 283.366c21.941 0.004 43.629 4.681 63.62 13.722v-34.992l-62.238-44.201-62.242 44.201v33.74c19.234-8.236 39.94-12.478 60.861-12.47zM251.921 235.041l51.773-36.768-79.887-56.73v84.127l28.114 9.371zM32.006 105.108c-0.179 16.511 4.926 32.645 14.569 46.047s23.32 23.37 39.031 28.446l106.2 35.399v-104.446c0-2.936 0.808-5.814 2.336-8.322s3.715-4.547 6.324-5.893c2.609-1.348 5.538-1.95 8.467-1.743 2.929 0.205 5.744 1.214 8.137 2.913l45.8 32.523 8.062-46.097-20.258-115.842h-110.157v70.012c0 4.242-1.686 8.313-4.686 11.314-3.001 2.999-7.070 4.685-11.314 4.685s-8.313-1.686-11.314-4.685c-3.001-3.001-4.686-7.072-4.686-11.314v-70.012h-76.51v137.013zM1024.006 605.815c0-4.244-1.686-8.313-4.687-11.314-2.999-3.001-7.070-4.685-11.312-4.685h-421.37c-4.244 0-8.313 1.684-11.314 4.685s-4.687 7.070-4.687 11.314c0 4.242 1.686 8.313 4.687 11.314s7.070 4.685 11.314 4.685h60.725v99.6c0 4.244 1.686 8.313 4.685 11.314 3.001 3.001 7.072 4.687 11.314 4.687 4.244 0 8.313-1.686 11.314-4.687s4.685-7.070 4.685-11.314v-99.6h57.306v180.852c0 4.244 1.686 8.313 4.687 11.314 2.999 3.001 7.070 4.686 11.312 4.686 4.244 0 8.313-1.686 11.314-4.686s4.687-7.070 4.687-11.314v-180.852h57.306v144.618c0 4.243 1.684 8.313 4.685 11.314s7.070 4.686 11.314 4.686c4.242 0 8.313-1.686 11.314-4.686 2.999-3.001 4.685-7.070 4.685-11.314v-144.618h57.308v226.97c0 4.243 1.684 8.313 4.685 11.314s7.070 4.686 11.314 4.686c4.244 0 8.313-1.686 11.314-4.686s4.685-7.070 4.685-11.314v-226.97h60.725c4.242 0 8.313-1.684 11.312-4.685 3.001-3.001 4.687-7.072 4.687-11.314zM920.434 955.857c3.126 2.833 7.245 4.316 11.46 4.127s8.186-2.036 11.045-5.137c2.861-3.102 4.38-7.208 4.228-11.424s-1.964-8.202-5.041-11.089l-89.305-82.352c-2.232-2.057-5.001-3.437-7.985-3.979-2.986-0.543-6.065-0.225-8.875 0.915l-79.974 32.448-81.855-74.47c-3.143-2.83-7.279-4.301-11.502-4.091-4.226 0.21-8.194 2.084-11.040 5.212s-4.338 7.256-4.15 11.481c0.188 4.225 2.044 8.204 5.156 11.066l89.307 81.254c2.23 2.031 4.988 3.391 7.958 3.922s6.029 0.211 8.825-0.922l79.905-32.418 81.845 75.458zM583.16 455.494c-3.553-0.79-6.729-2.767-9.007-5.607s-3.519-6.37-3.519-10.010v-40.381c0-3.64 1.241-7.172 3.519-10.010 2.278-2.84 5.454-4.819 9.007-5.609l12.271-2.729c2.025-6.248 4.543-12.324 7.534-18.173l-6.75-10.61c-1.954-3.072-2.802-6.717-2.405-10.336s2.017-6.995 4.591-9.567l28.553-28.549c2.575-2.573 5.95-4.192 9.567-4.589s7.262 0.449 10.334 2.403l10.61 6.748c5.847-2.99 11.924-5.509 18.173-7.534l2.729-12.269c0.79-3.553 2.767-6.729 5.607-9.007 2.84-2.276 6.372-3.517 10.010-3.517h40.377c3.638 0 7.17 1.241 10.010 3.517 2.84 2.278 4.817 5.454 5.607 9.007l2.729 12.269c6.248 2.025 12.326 4.543 18.175 7.534l10.599-6.748c3.072-1.954 6.717-2.8 10.334-2.403 3.62 0.397 6.992 2.017 9.567 4.589l28.553 28.549c2.575 2.573 4.194 5.948 4.591 9.567 0.399 3.62-0.449 7.264-2.405 10.336l-6.75 10.61c2.99 5.849 5.511 11.924 7.538 18.173l12.267 2.729c3.553 0.79 6.731 2.769 9.007 5.609 2.278 2.838 3.519 6.37 3.519 10.010v40.385c0 3.64-1.241 7.17-3.519 10.010-2.276 2.84-5.454 4.817-9.007 5.607l-12.269 2.729c-2.025 6.246-4.545 12.324-7.536 18.171l6.75 10.612c1.954 3.072 2.802 6.719 2.405 10.336-0.399 3.617-2.019 6.992-4.593 9.567l-28.549 28.549c-2.575 2.575-5.95 4.194-9.567 4.591-3.62 0.397-7.264-0.451-10.336-2.407l-10.599-6.748c-5.849 2.99-11.926 5.511-18.175 7.538l-2.729 12.267c-0.79 3.553-2.769 6.729-5.607 9.007-2.84 2.276-6.372 3.517-10.010 3.517h-40.377c-3.638 0-7.17-1.241-10.010-3.517-2.838-2.278-4.817-5.454-5.607-9.007l-2.729-12.267c-6.248-2.027-12.326-4.547-18.173-7.538l-10.61 6.748c-3.072 1.956-6.717 2.805-10.336 2.407-3.617-0.397-6.992-2.017-9.567-4.591l-28.545-28.549c-2.575-2.575-4.194-5.95-4.593-9.567-0.397-3.617 0.451-7.264 2.405-10.336l6.75-10.612c-2.99-5.847-5.511-11.924-7.536-18.173l-12.273-2.731zM602.634 427.046l9.086 2.017c2.936 0.654 5.63 2.123 7.77 4.238s3.64 4.792 4.33 7.72c2.284 9.709 6.131 18.98 11.387 27.456 1.584 2.558 2.416 5.511 2.397 8.52-0.017 3.009-0.884 5.954-2.499 8.493l-4.999 7.866 10.399 10.401 7.866-5.001c2.539-1.613 5.479-2.476 8.487-2.495 3.005-0.019 5.956 0.811 8.514 2.393 8.476 5.258 17.749 9.103 27.458 11.387 2.93 0.688 5.605 2.188 7.72 4.328s3.584 4.832 4.238 7.77l2.019 9.084h14.712l2.019-9.084c0.654-2.938 2.123-5.632 4.238-7.772s4.792-3.64 7.72-4.328c9.709-2.284 18.984-6.129 27.458-11.387 2.558-1.582 5.509-2.41 8.516-2.393 3.007 0.019 5.948 0.884 8.485 2.497l7.866 5.001 10.401-10.401-5.001-7.866c-1.615-2.539-2.481-5.484-2.499-8.493s0.813-5.962 2.397-8.52c5.258-8.476 9.105-17.751 11.389-27.46 0.688-2.928 2.19-5.603 4.33-7.718 2.14-2.113 4.832-3.582 7.77-4.236l9.086-2.017v-14.714l-9.086-2.021c-2.938-0.654-5.63-2.121-7.772-4.236-2.14-2.115-3.64-4.79-4.328-7.72-2.286-9.707-6.131-18.982-11.389-27.456-1.584-2.558-2.416-5.513-2.397-8.522s0.884-5.952 2.499-8.493l5.001-7.864-10.401-10.399-7.866 4.999c-2.537 1.613-5.477 2.478-8.485 2.495-3.007 0.019-5.958-0.813-8.516-2.395-8.476-5.256-17.749-9.099-27.458-11.383-2.928-0.69-5.603-2.19-7.718-4.33s-3.584-4.834-4.238-7.77l-2.019-9.086h-14.712l-2.019 9.086c-0.654 2.938-2.123 5.632-4.238 7.772s-4.792 3.643-7.722 4.33c-9.709 2.282-18.982 6.127-27.456 11.383-2.558 1.582-5.509 2.412-8.514 2.395-3.007-0.019-5.95-0.884-8.487-2.497l-7.866-4.999-10.399 10.399 4.999 7.864c1.615 2.541 2.483 5.484 2.499 8.493 0.019 3.009-0.813 5.964-2.397 8.522-5.258 8.476-9.103 17.751-11.387 27.46-0.69 2.928-2.19 5.603-4.332 7.718-2.14 2.113-4.832 3.582-7.768 4.234l-9.086 2.021-0.002 14.714zM714.173 351.894c13.408 0 26.517 3.977 37.666 11.427s19.841 18.039 24.971 30.427c5.133 12.388 6.474 26.022 3.86 39.173-2.616 13.151-9.074 25.232-18.557 34.716-9.481 9.481-21.563 15.939-34.714 18.555-13.153 2.614-26.785 1.273-39.173-3.86-12.388-5.13-22.977-13.822-30.427-24.971s-11.427-24.258-11.427-37.666c0.021-17.976 7.17-35.211 19.88-47.921s29.945-19.859 47.921-19.88zM714.173 455.494c7.080 0 14.002-2.098 19.889-6.033 5.887-3.933 10.476-9.523 13.185-16.066 2.71-6.541 3.419-13.738 2.038-20.683-1.381-6.946-4.79-13.325-9.797-18.332s-11.385-8.416-18.33-9.797c-6.944-1.381-14.144-0.673-20.685 2.038-6.541 2.708-12.133 7.298-16.066 13.185-3.935 5.887-6.033 12.808-6.033 19.891 0.008 9.49 3.785 18.591 10.495 25.303 6.712 6.71 15.813 10.487 25.305 10.495z" />
<glyph unicode="&#xe91a;" glyph-name="27" d="M951.632 207.999l55.217 138.048-29.713 11.889-59.969-149.937h-5.168v192h-31.999v256h-64v64h-32.001v-64h-31.999v96.001h-32.001v-96.001h-31.999v64h-32.001v-64h-64v-192h-64v-82.064c-37.712 46.306-89.184 80.033-147.6 95.489l-7.264 21.776c23.328 6.447 42.496 22.944 52.080 44.801h6.786c35.295 0 64 28.703 64 63.998v80.002c17.648 0 31.999 14.351 31.999 31.999v32.001c0 17.648-14.351 32-31.999 32h-2.784c-15.312 92.16-94.129 160-189.216 160s-173.904-67.84-189.217-160h-2.784c-17.648 0-32-14.352-32-32v-32.001c0-17.648 14.352-31.999 32-31.999v-80.002c0-35.295 28.704-63.998 64-63.998h6.784c9.6-21.857 28.751-38.369 52.080-44.801l-7.264-21.776c-125.040-32.977-211.6-144.752-211.6-274.896v-10.528c0-68.223 39.104-127.375 96-156.576v-83.425h479.999v128h49.616c7.44-36.463 39.744-64 78.384-64s70.944 27.537 78.384 64h80.305c64.24 0 118.544 46.001 129.103 109.361l3.105 18.639h-59.265zM752.001 207.999v160.001h128v-160.001h-128zM624.001 624.001h223.999v-224.001h-95.999v64h-128v160.001zM719.999 432.001v-224.001h-159.999v224.001h159.999zM527.999 325.185v-117.185h-5.168l-59.983 149.953-29.713-11.889 55.233-138.064h-59.248l3.103-18.639c4.24-25.441 15.615-48.017 31.775-66v-139.36h-79.999v31.999c26.463 0 48.001 21.537 48.001 48.001s-21.537 48.001-48.001 48.001v330.767c61.007-19.391 112.609-61.248 143.999-117.582zM340.463 496.001l9.872-29.633-46.335-69.519-46.352 69.519 9.887 29.633h72.928zM352.001 333.615l-28.193 35.249 28.193 42.289v-77.538zM256 333.615v77.538l28.191-42.289-28.191-35.249zM256 282.4l48.001 60 48.001-60v-141.216c-5.026 1.776-10.384 2.815-16.002 2.815h-18.735c-12.817 0-24.881-4.993-33.953-14.064l-16.415-16.415-10.896 2.433v166.448zM287.999 89.376l17.937 17.935c3.024 3.026 7.057 4.69 11.329 4.69h18.735c8.817 0 16.002-7.185 16.002-16.002v-15.999h31.999c8.817 0 15.999-7.183 15.999-15.999s-7.183-15.999-15.999-15.999h-96.001v41.376zM352.001 15.999v-31.999h-96.001v31.999h96.001zM432.001 576v64c17.648 0 31.999-14.353 31.999-32.001 0-17.646-14.351-31.999-31.999-31.999zM463.999 663.105c-9.456 5.502-20.288 8.896-31.999 8.896v15.999h31.999v-24.896zM460.735 784h-108.734v120.672c54.96-17.040 97.119-62.624 108.734-120.672zM320 911.2v-127.2h-32.001v127.2c5.264 0.512 10.593 0.8 16.002 0.8s10.735-0.288 15.999-0.8zM256 904.672v-120.672h-108.736c11.616 58.048 53.776 103.632 108.736 120.672zM111.984 752h384.017v-32.001h-384l-0.016 32.001zM176 688.001v-15.999c-11.712 0-22.544-3.394-32-8.896v24.896h32zM144 607.999c0 17.648 14.352 32.001 32 32.001v-64c-17.648 0-32 14.353-32 31.999zM208 576v112.001h192v-112.001c0-26.463-21.535-48.001-47.998-48.001h-96.001c-26.463 0-48 21.537-48 48.001zM48 192v10.528c0 111.359 71.424 207.487 176.001 240.464v-319.952l-17.361 3.856c-36.88 8.207-62.64 40.318-62.64 78.112v66.99h-32v-66.99c0-52.897 36.064-97.857 87.696-109.33l56.304-12.512v-35.167h-64c-79.392 0-144 64.608-144 143.999zM144 22.816c15.28-4.336 31.344-6.817 48-6.817h32.001v-31.999h-80.001v38.816zM496.001-15.999v113.376c18.927-10.879 40.799-17.088 64-17.329v-96.047h-64zM719.999 48.001c-26.463 0-48.001 21.535-48.001 47.998 0 8.817 7.185 16.002 16.002 16.002h64c8.815 0 15.999-7.185 15.999-16.002 0-26.463-21.535-47.998-48.001-47.998zM878.671 112.001h-81.632c-6.625 18.576-24.223 31.999-45.056 31.999h-64c-20.831 0-38.431-13.423-45.056-31.999h-81.632c-41.984 0-78.336 25.999-92.559 64h502.462c-14.192-38.001-50.527-64-92.528-64z" />
<glyph unicode="&#xe91b;" glyph-name="28" horiz-adv-x="1434" d="M1334.303 860.706c29.993-29.992 29.993-78.62 0-108.612l-716.797-716.8c-29.992-29.992-78.62-29.992-108.612 0l-409.6 409.6c-29.992 29.992-29.992 78.62 0 108.612s78.62 29.992 108.612 0l355.294-355.294 662.497 662.494c29.993 29.992 78.612 29.992 108.605 0z" />
<glyph unicode="&#xe91c;" glyph-name="29" horiz-adv-x="1072" d="M1055.931 100.769c-8.672 0-15.698-7.029-15.698-15.698v-104.887c0-1.456-1.185-2.643-2.643-2.643h-59.647v229.346c0 8.669-7.026 15.698-15.698 15.698s-15.697-7.029-15.697-15.698v-229.349h-115.263l31.196 34.319c4.819 5.302 7.089 12.83 6.079 20.141-0.023 0.157-0.046 0.312-0.074 0.469l-35.068 207.2 6.454 9.714 1.68-1.193c5.753-4.088 13.092-5.577 20.192-3.804 6.972 1.743 12.813 6.433 16.024 12.863v0.002l35.683 71.52 81.513-31.569c3.217-1.398 45.262-20.678 45.262-70.838v-68.032c0.002-8.672 7.029-15.699 15.699-15.699 8.672 0 15.698 7.027 15.698 15.697v68.032c0 72.44-62.132 98.814-64.775 99.902-0.1 0.042-0.199 0.082-0.299 0.119l-138.803 53.758v28.591c21.667 17.431 36.883 42.553 41.453 71.192 10.806 1.356 20.831 5.682 29.151 12.838 11.931 10.26 18.777 25.189 18.777 40.956 0 12.586-4.369 24.628-12.19 34.193v42.359c0 82.895-67.441 150.335-150.333 150.335-37.216 0-71.291-13.622-97.573-36.104-0.339 12.028-4.644 23.49-12.147 32.666v42.357c0 82.896-67.441 150.335-150.334 150.335-82.895 0-150.335-67.441-150.335-150.335v-43.462c-7.545-9.017-11.766-19.888-12.139-31.427-16.77 14.331-36.839 25.12-59.207 31.011-8.397 2.21-16.972-2.798-19.18-11.183s2.798-16.972 11.182-19.181c52.144-13.73 88.563-61.026 88.563-115.009v-23.477c-0.679 0.141-2.855 0.516-2.939 0.527-0.214 4.431-1.336 7.137-3.751 10.611-4.019 5.775-11.235 12.969-34.447 37.918-8.272 8.885-21.65 10.515-31.806 3.876-39.757-25.97-88.058-39.206-132.882-36.576-14.6 0.856-23.72-5.558-27.606-16.072-0.348-0.056-4.231-0.839-4.446-0.892v24.084c0 52.051 34.781 98.879 84.581 113.88 8.3 2.499 13.004 11.257 10.504 19.56s-11.27 13.006-19.561 10.503c-30.287-9.122-57.51-28.114-76.651-53.473-19.806-26.233-30.273-57.518-30.273-90.47v-43.464c-7.907-9.448-12.183-20.93-12.183-33.088 0-26.874 19.8-50.312 48.010-53.808 4.621-27.969 19.795-54.791 43.744-73.028v-26.75l-138.648-53.753c-0.098-0.038-0.197-0.077-0.295-0.118-2.65-1.086-64.783-27.457-64.783-99.897v-246.179c0-18.773 15.271-34.041 34.043-34.041h483.427c6.756 0 13.042 2.003 18.345 5.411 5.3-3.408 11.587-5.411 18.345-5.411h483.429c18.77 0 34.041 15.268 34.041 34.041v104.887c-0.002 8.669-7.029 15.698-15.699 15.698zM158.446 512.344c-9.203 3.34-15.083 11.852-15.083 21.375 0 9.237 6.698 16.826 15.083 20.429v-41.804zM884.048 340.157l-30.814-61.757c-0.004 0.005-34.227 24.31-34.712 24.656 14.765 18.226 7.828 9.664 38.529 47.555l26.998-10.454zM795.829 324.925l-40.598 50.113v15.059c13.197-4.563 27.412-6.668 40.792-6.671 0.002 0 0.007 0 0.008 0h0.002c13.835 0.001 27.841 2.628 40.316 7.323v-15.807l-40.521-50.016zM814.26 267.57l-5.775-8.693h-25.306l-5.775 8.693 18.428 13.087 18.427-13.087zM535.773 514.179l-40.598 50.114v15.059c13.144-4.544 27.344-6.668 40.792-6.673 0.002 0 0.007 0 0.008 0h0.002c13.81 0 27.815 2.618 40.316 7.322v-15.804l-40.521-50.018zM554.202 456.821l-5.775-8.692h-25.306l-5.775 8.692 18.428 13.087 18.427-13.087zM412.153 670.669c2.566-0.7 5.203-1.175 7.88-1.505 4.622-27.969 19.797-54.791 43.745-73.028v-26.751l-32.026-12.413c-1.856 3.9-4.177 7.573-6.931 10.94v42.357c0 21.303-4.488 41.78-12.668 60.401zM619.19 687.291c0-45.948-37.482-83.21-83.212-83.21-51.595 0-86.076 39.987-86.076 83.21v73.532c49.569-1.984 101.064 12.707 143.165 38.912 14.155-15.179 22.578-23.996 26.125-28.091-0.002-39.082-0.002-54.173-0.002-84.353zM649.143 669.173c2.662 0.336 5.287 0.813 7.838 1.51-8.154-18.502-12.717-38.93-12.717-60.415v-43.462c-2.414-2.883-4.49-5.952-6.208-9.174l-30.365 11.759v28.59c21.665 17.433 36.883 42.556 41.452 71.192zM474.498 539.842l38.537-47.566-26.28-18.665c-0.014-0.011-0.025-0.021-0.040-0.032l-8.34-5.925-30.816 61.754 26.94 10.434zM571.903 508.898l25.089 30.969 26.998-10.454-30.812-61.759-8.359 5.936c-0.010 0.007-0.018 0.015-0.026 0.021l-26.328 18.701 13.437 16.586zM579.815 438.634l1.68-1.193c5.869-4.169 13.235-5.546 20.192-3.805 6.972 1.744 12.813 6.435 16.023 12.864v0.002l26.494 53.098c9.102-11.219 22.267-18.043 35.826-19.736 4.789-30.014 21.012-55.628 43.805-72.984v-26.748l-133.459-51.742-17.016 100.527 6.456 9.716zM734.553 350.589l38.537-47.566c-16.848-11.97-33.787-24.002-34.66-24.622l-30.816 61.754 26.94 10.434zM879.245 498.035c0.004-44.826-36.401-83.21-83.211-83.21-53.355 0-86.076 41.789-86.076 83.21v73.533c49.215-1.966 100.777 12.531 143.162 38.911 14.155-15.178 22.578-23.996 26.125-28.090-0.001-39.081-0.001-54.174-0.001-84.354zM925.729 533.718c0-9.54-5.898-18.035-15.081-21.374v42.703c9.493-3.457 15.081-12.133 15.081-21.329zM675.663 610.269c0 65.584 53.358 118.939 118.938 118.939 65.582 0 118.935-53.358 118.935-118.939v-23.477c-0.713 0.149-2.677 0.488-2.937 0.527-0.214 4.435-1.342 7.148-3.752 10.611-4.125 5.926-11.262 12.995-34.446 37.918-8.097 8.69-21.446 10.647-31.806 3.876-38.679-25.267-87.547-39.539-134.048-36.519-13.063 0.856-22.526-5.54-26.441-16.132-0.35-0.056-4.226-0.838-4.446-0.891v24.085h0.002zM678.561 554.146v-41.782c-9.23 3.328-15.081 11.864-15.081 21.355-0.002 9.237 6.691 16.822 15.081 20.426zM665.67 722.97c0-6.61-2.861-12.861-7.849-17.15-2.141-1.842-4.582-3.257-7.233-4.222v42.704c9.387-3.408 15.083-12.037 15.083-21.333zM534.542 918.461c65.582 0 118.938-53.355 118.938-118.938v-23.477c-0.708 0.146-2.677 0.488-2.939 0.527-0.232 4.808-1.617 7.763-4.445 11.587-4.203 5.689-11.951 13.511-33.753 36.944-8.231 8.839-21.602 10.545-31.805 3.877-40.848-26.686-90.4-39.674-135.314-36.457-10.988 0.831-21.334-5.808-25.173-16.191-0.349-0.057-4.228-0.839-4.445-0.892v24.081h-0.002c0 65.584 53.358 118.94 118.938 118.94zM418.502 743.4v-41.803c-9.203 3.34-15.083 11.852-15.083 21.375 0 9.184 6.645 16.801 15.083 20.428zM390.53 555.047c8.783-3.196 14.423-10.858 14.983-19.964 0.703-10.127-5.52-19.283-14.983-22.72v42.684zM389.076 479.869c14.805 1.852 28.396 9.654 37.308 21.658l27.456-55.025c0 0 0 0 0.001-0.002 3.209-6.432 9.050-11.12 16.022-12.864 6.893-1.722 14.267-0.404 20.192 3.805l1.68 1.193 6.454-9.714-17.010-100.501-133.543 51.722v28.578h-0.002c22.234 17.926 36.979 43.256 41.442 71.15zM275.713 324.925l-40.598 50.113v15.059c13.144-4.544 27.348-6.668 40.794-6.67 0.002 0 0.007 0 0.008 0 14.036 0 28.018 2.696 40.316 7.322v-15.807l-40.521-50.016zM294.144 267.57l-5.774-8.693h-25.307l-5.775 8.693 18.43 13.087 18.426-13.087zM336.932 350.612l27-10.457-30.813-61.754-8.36 5.936c-0.008 0.007-0.017 0.015-0.025 0.021l-26.329 18.699 38.526 47.555zM189.844 498.035v73.533c49.832-1.991 101.361 12.895 143.162 38.911 14.020-15.036 22.573-23.993 26.125-28.090 0-39.083 0-54.176 0-84.354 0-45.655-37.225-83.21-83.213-83.21-51.201 0-86.074 39.531-86.074 83.21zM214.44 350.589l38.537-47.566-26.28-18.665c-0.014-0.011-0.025-0.021-0.039-0.031l-8.341-5.926-30.815 61.754 26.938 10.434zM125.085-22.465v229.351c0 8.669-7.026 15.698-15.698 15.698s-15.698-7.029-15.698-15.698v-229.349h-59.647c-1.461 0-2.646 1.187-2.646 2.643v246.182c0 50.419 42.482 69.637 45.232 70.825l81.463 31.582 35.688-71.52c0 0 0 0 0.002-0.002 3.208-6.432 9.050-11.12 16.024-12.863 6.892-1.723 14.266-0.405 20.191 3.804l1.681 1.193 6.452-9.714-35.068-207.2c-0.027-0.155-0.050-0.312-0.074-0.469-1.009-7.306 1.262-14.835 6.083-20.144l31.192-34.316-115.179-0.002zM234.571 30.483l33.34 196.997h15.612l33.342-196.997-41.147-45.266-41.147 45.266zM520.113-19.817c0-1.459-1.185-2.646-2.643-2.646h-59.643v229.349c0 8.669-7.026 15.698-15.697 15.698-8.672 0-15.698-7.029-15.698-15.698v-229.349h-115.263l31.197 34.319c4.818 5.302 7.088 12.83 6.077 20.141-0.023 0.157-0.045 0.312-0.073 0.469l-35.068 207.2 6.452 9.714 1.681-1.193c4.2-2.984 9.173-4.541 14.219-4.541 9.208 0 17.782 5.159 21.998 13.6v0.002l35.684 71.518 81.512-31.569c23.76-10.335 45.262-36.99 45.262-70.836v-246.179h0.002zM535.813 283.405c-6.502 10.478-15.16 20.173-25.595 28.447l17.751 104.879h15.611l17.759-104.934c-10.714-8.509-19.257-18.291-25.526-28.392zM645.199-22.465v229.351c0 8.669-7.026 15.698-15.698 15.698s-15.697-7.029-15.697-15.698v-229.349h-59.646c-1.459 0-2.645 1.187-2.645 2.643v246.182c0 18.661 5.851 35.85 18.318 50.289 8.311 9.534 19.335 17.252 26.916 20.536l81.463 31.584 35.688-71.523c0 0 0 0 0.002-0.002 3.209-6.432 9.050-11.12 16.022-12.863 6.893-1.723 14.266-0.405 20.192 3.804l1.68 1.193 6.454-9.714-35.070-207.2c-0.026-0.155-0.050-0.312-0.073-0.469-1.009-7.306 1.262-14.835 6.082-20.144l31.193-34.316-115.181-0.002zM754.684 30.481l33.342 196.997h15.611l33.342-196.997-41.148-45.266-41.147 45.266z" />
<glyph unicode="&#xe91d;" glyph-name="30" d="M512.181 959.893c-204.864 0.030-390.015-122.085-470.649-310.412l-6.382-2.116 2.474-7.422c-106.167-261.847 20.034-560.18 281.881-666.346 61.156-24.798 126.531-37.526 192.525-37.49 282.71-0.043 511.928 229.106 511.97 511.816s-229.106 511.93-511.819 511.97zM913.704 189.912l-26.285 26.268v61.189c0.030 2.641-0.555 5.251-1.707 7.628l-66.546 132.904v64.226c0 5.703-2.848 11.031-7.594 14.196l-51.189 34.127c-4.012 2.678-8.971 3.534-13.651 2.354l-62.689-15.664-105.297 45.183-14.486 101.491 40.149 40.133h86.187l29.007-43.596c2.619-3.921 6.747-6.584 11.398-7.355l102.378-17.063c2.743-0.461 5.555-0.237 8.191 0.649l94.291 31.431c79.085-151.766 70.626-334.301-22.157-478.1zM843.328 791.753l-27.745-18.497-77.347 15.476-50.183 16.705c-3.071 1.043-6.377 1.175-9.521 0.375l-63.441-15.852-27.813 9.265 20.613 41.225h57.707c2.648-0.002 5.258 0.61 7.628 1.792l59.038 29.519c40.657-21.222 78.060-48.165 111.064-80.009zM325.137 887.665l40.952-27.301c2.014-1.339 4.287-2.235 6.672-2.628l82.688-13.787-8.071-24.144-43.084-14.385c-3.858-1.283-7.133-3.903-9.231-7.388l-49.005-81.664-78.713-47.231-116.029-16.568c-8.409-1.188-14.664-8.382-14.674-16.876v-51.189c0-4.526 1.8-8.864 4.999-12.064l29.127-29.127v-29.314l-70.983 47.333-25.748 77.245c48.988 111.933 138.777 201.003 251.1 249.087zM276.559 328.217l-77.125 15.442-28.665 57.179v40.098l63.577 63.577 23.53-47.077c2.89-5.784 8.804-9.438 15.271-9.436h109.784l46.223-77.040c3.085-5.134 8.635-8.274 14.624-8.276h47.435l-11.944-59.84-64.601-64.601c-3.205-3.197-5.010-7.536-5.016-12.063v-42.659l-61.427-46.070c-4.295-3.223-6.826-8.28-6.826-13.651v-61.631l-21.226 7.029-29.962 74.941v167.356c0.002 8.109-5.706 15.101-13.651 16.722zM225.267 65.911c-160.882 120.699-228.919 329.244-170.171 521.596l14.179-42.521c1.194-3.598 3.553-6.697 6.706-8.804l85.059-56.701-19.4-19.417c-3.199-3.199-4.999-7.538-4.999-12.064v-51.19c-0.002-2.646 0.61-5.258 1.792-7.627l34.125-68.253c2.363-4.714 6.772-8.070 11.944-9.094l71.665-14.317v-156.656c-0.002-2.166 0.41-4.317 1.212-6.331l34.127-85.315c1.868-4.66 5.695-8.263 10.46-9.845l51.189-17.063c1.711-0.58 3.502-0.878 5.307-0.887 9.423 0 17.063 7.64 17.063 17.063v76.784l61.427 46.070c4.295 3.223 6.826 8.281 6.826 13.651v44.125l63.252 63.252c2.378 2.383 3.999 5.418 4.658 8.72l17.063 85.315c1.848 9.242-4.146 18.229-13.388 20.077-1.098 0.22-2.214 0.33-3.334 0.33h-58.594l-46.224 77.040c-3.083 5.134-8.633 8.274-14.623 8.276h-108.897l-29.315 58.816c-2.454 4.91-7.121 8.34-12.541 9.214-5.418 0.936-10.949-0.851-14.795-4.778l-22.148-22.063v27.062c0 4.526-1.8 8.864-4.999 12.064l-29.126 29.127v29.331l104.802 14.964c2.249 0.327 4.415 1.099 6.364 2.27l85.316 51.19c2.393 1.437 4.398 3.442 5.836 5.836l47.947 79.906 45.2 15.084c5.104 1.675 9.109 5.678 10.784 10.784l17.063 51.19c2.956 8.947-1.901 18.599-10.849 21.555-0.825 0.273-1.671 0.482-2.529 0.627l-98.761 16.466-17.353 11.569c107.377 34.949 223.675 30.624 328.158-12.2l-31.174-15.562h-64.225c-6.499 0.036-12.452-3.624-15.358-9.436l-34.125-68.252c-4.204-8.433-0.777-18.68 7.657-22.884 0.718-0.358 1.461-0.666 2.222-0.919l51.19-17.063c3.071-1.042 6.377-1.175 9.521-0.375l63.44 15.853 46.48-15.477c0.666-0.239 1.349-0.422 2.047-0.546l85.316-17.062c4.436-0.905 9.051 0.003 12.814 2.525l38.836 25.902c19.114-21.288 36.289-44.238 51.326-68.576l-83.951-27.984-90.895 15.152-30.032 45.047c-3.148 4.721-8.438 7.565-14.111 7.594h-102.378c-4.526 0-8.864-1.8-12.064-4.999l-51.19-51.19c-3.8-3.799-5.59-9.167-4.829-14.486l17.063-119.442c0.859-5.906 4.741-10.934 10.238-13.259l119.442-51.19c3.421-1.481 7.24-1.787 10.852-0.87l60.933 15.238 37.249-24.879v-59.123c-0.030-2.641 0.555-5.251 1.707-7.628l66.546-132.904v-64.225c0-4.526 1.8-8.864 4.999-12.064l35.696-35.714c-158.309-211.012-457.706-253.738-668.72-95.428z" />
<glyph unicode="&#xe91e;" glyph-name="31" horiz-adv-x="1317" d="M13.714 575.206c0 217.68 208.745 382.051 449.916 382.051 191.922 0 362.085-103.337 424.607-255.049 2.804-6.804-2.076-14.185-9.411-14.792-20.424-1.69-40.707-4.589-60.7-8.647-5.105-1.037-10.255 1.567-12.535 6.249-52.863 108.522-182.714 189.953-341.962 189.953-210.347 0-367.631-140.888-367.631-299.766 0-85.832 44.649-165.092 119.726-221.131 10.404-7.766 16.532-19.987 16.532-32.97v-51.605l84.9 23.6c7.393 2.055 15.215 2.003 22.581-0.154 33.502-9.81 69.315-15.773 106.663-17.181 5.926-0.224 10.701-4.993 10.957-10.917 1.018-23.473 4.162-46.147 9.223-67.947 0.442-1.905-0.993-3.739-2.951-3.745-47.123 0-92.653 6.145-135.488 17.592l-126.008-35.030c-12.389-3.444-25.675-0.898-35.913 6.883-10.237 7.779-16.249 19.899-16.249 32.758v85.753c-82.826 68.362-136.258 165.088-136.258 274.094zM376.038 682.53c0-32.252-26.144-58.397-58.396-58.397s-58.396 26.146-58.396 58.397c0 32.252 26.144 58.396 58.396 58.396s58.396-26.144 58.396-58.396zM609.622 624.132c32.252 0 58.397 26.146 58.397 58.397s-26.146 58.396-58.397 58.396c-32.25 0-58.396-26.144-58.396-58.396s26.146-58.397 58.396-58.397zM797.948 302.953c28.22 0 51.098 22.876 51.098 51.096s-22.878 51.098-51.098 51.098c-28.219 0-51.096-22.878-51.096-51.098s22.878-51.096 51.096-51.096zM1097.232 354.049c0-28.22-22.878-51.096-51.098-51.096s-51.096 22.876-51.096 51.096c0 28.22 22.876 51.098 51.096 51.098s51.098-22.878 51.098-51.098zM920.809 594.732c203.545 0 381.788-138.933 381.788-325.233 0-92.1-44.361-161.533-113.29-219.477v-68.248c0-12.859-6.011-24.978-16.249-32.758-10.237-7.779-23.524-10.326-35.912-6.883l-103.213 28.692c-35.746-9.386-73.662-14.412-112.865-14.412-203.545 0-381.787 138.933-381.787 325.233s177.983 313.085 381.528 313.085zM1220.57 281.647c0 127.498-126.781 242.947-299.502 242.947s-299.501-115.449-299.501-242.947c0-127.497 126.78-242.947 299.501-242.947 35.666 0 69.761 5.070 101.319 14.311 7.365 2.156 15.186 2.21 22.581 0.154l62.054-17.25v33.981c0 12.983 6.129 25.205 16.533 32.97 61.139 45.635 97.015 109.777 97.015 178.782z" />
<glyph unicode="&#xe91f;" glyph-name="32" horiz-adv-x="731" d="M420.571 141.583l198.924 198.922c21.423 21.423 56.157 21.423 77.58 0s21.423-56.157 0-77.58l-292.571-292.569c-21.423-21.424-56.157-21.424-77.58 0l-292.571 292.569c-21.423 21.423-21.423 56.157 0 77.58s56.157 21.423 77.58 0l198.924-198.922v708.703c0 30.297 24.561 54.857 54.857 54.857s54.857-24.561 54.857-54.857v-708.703z" />
<glyph unicode="&#xe920;" glyph-name="33" horiz-adv-x="731" d="M310.857 754.42l-198.924-198.924c-21.423-21.423-56.157-21.423-77.58 0s-21.423 56.157 0 77.58l292.572 292.571c21.423 21.423 56.157 21.423 77.58 0l292.571-292.571c21.423-21.423 21.423-56.157 0-77.58s-56.157-21.423-77.58 0l-198.924 198.924v-708.706c0-30.296-24.561-54.857-54.857-54.857s-54.857 24.561-54.857 54.857v708.706z" />
<glyph unicode="&#xe921;" glyph-name="34" horiz-adv-x="1506" d="M1479.418 933.536c35.286-35.285 35.286-92.493 0-127.778l-843.294-843.294c-35.286-35.286-92.491-35.286-127.777 0l-481.883 481.882c-35.285 35.286-35.285 92.491 0 127.777s92.493 35.286 127.778 0l417.993-417.994 779.406 779.406c35.286 35.285 92.491 35.285 127.777 0z" />
<glyph unicode="&#xe922;" glyph-name="35" d="M208.211 864.059c-35.978 4.021-73.251 4.021-109.229 0-0.668-0.075-1.329-0.377-1.872-0.913-0.531-0.523-0.738-1.052-0.791-1.501-4.293-36.704-4.293-73.783 0-110.487 0.053-0.449 0.26-0.977 0.791-1.501 0.543-0.536 1.204-0.838 1.872-0.913 35.978-4.021 73.251-4.021 109.229 0 0.668 0.075 1.329 0.377 1.872 0.913 0.531 0.523 0.738 1.052 0.791 1.501 4.293 36.704 4.293 73.783 0 110.487-0.053 0.449-0.26 0.977-0.791 1.501-0.543 0.536-1.204 0.838-1.872 0.913zM90.452 940.384c41.647 4.655 84.642 4.655 126.289 0 36.471-4.076 66.079-32.77 70.412-69.817 4.986-42.632 4.986-85.699 0-128.33-4.333-37.046-33.942-65.74-70.412-69.817-41.647-4.655-84.642-4.655-126.289 0-36.471 4.077-66.079 32.771-70.412 69.817-4.986 42.632-4.986 85.699 0 128.33 4.333 37.046 33.942 65.74 70.412 69.817zM566.61 864.059c-35.978 4.021-73.25 4.021-109.228 0-0.668-0.075-1.329-0.377-1.872-0.913-0.531-0.523-0.738-1.052-0.791-1.501-4.293-36.704-4.293-73.783 0-110.487 0.053-0.449 0.26-0.977 0.791-1.501 0.543-0.536 1.204-0.838 1.872-0.913 35.978-4.021 73.249-4.021 109.228 0 0.671 0.075 1.331 0.377 1.874 0.913 0.532 0.523 0.737 1.052 0.788 1.501 4.296 36.704 4.296 73.783 0 110.487-0.051 0.449-0.256 0.977-0.788 1.501-0.543 0.536-1.203 0.838-1.874 0.913zM448.852 940.384c41.647 4.655 84.642 4.655 126.288 0 36.475-4.076 66.079-32.77 70.415-69.817 4.987-42.632 4.987-85.699 0-128.33-4.337-37.046-33.94-65.74-70.415-69.817-41.646-4.655-84.641-4.655-126.288 0-36.471 4.077-66.079 32.771-70.412 69.817-4.986 42.632-4.986 85.699 0 128.33 4.333 37.046 33.942 65.74 70.412 69.817zM925.010 864.059c-35.978 4.021-73.252 4.021-109.225 0-0.671-0.075-1.331-0.377-1.874-0.913-0.532-0.523-0.737-1.052-0.794-1.501-4.291-36.704-4.291-73.783 0-110.487 0.056-0.449 0.261-0.977 0.794-1.501 0.543-0.536 1.203-0.838 1.874-0.913 35.973-4.021 73.247-4.021 109.225 0 0.671 0.075 1.331 0.377 1.874 0.913 0.532 0.523 0.737 1.052 0.788 1.501 4.296 36.704 4.296 73.783 0 110.487-0.051 0.449-0.256 0.977-0.788 1.501-0.543 0.536-1.203 0.838-1.874 0.913zM807.25 940.384c41.651 4.655 84.644 4.655 126.29 0 36.475-4.076 66.079-32.77 70.415-69.817 4.987-42.632 4.987-85.699 0-128.33-4.337-37.046-33.94-65.74-70.415-69.817-41.646-4.655-84.639-4.655-126.29 0-36.47 4.077-66.079 32.771-70.41 69.817-4.987 42.632-4.987 85.699 0 128.33 4.332 37.046 33.94 65.74 70.41 69.817zM208.211 505.659c-35.978 4.021-73.251 4.021-109.229 0-0.668-0.075-1.329-0.377-1.872-0.913-0.531-0.523-0.738-1.052-0.791-1.501-4.293-36.704-4.293-73.785 0-110.486 0.053-0.451 0.26-0.978 0.791-1.5 0.543-0.538 1.204-0.84 1.872-0.916 35.978-4.019 73.251-4.019 109.229 0 0.668 0.077 1.329 0.379 1.872 0.916 0.531 0.522 0.738 1.050 0.791 1.5 4.293 36.7 4.293 73.782 0 110.486-0.053 0.449-0.26 0.977-0.791 1.501-0.543 0.536-1.204 0.838-1.872 0.913zM90.452 581.984c41.647 4.655 84.642 4.655 126.289 0 36.471-4.077 66.079-32.771 70.412-69.817 4.986-42.632 4.986-85.697 0-128.331-4.333-37.043-33.942-65.741-70.412-69.816-41.647-4.654-84.642-4.654-126.289 0-36.471 4.076-66.079 32.773-70.412 69.816-4.986 42.634-4.986 85.7 0 128.331 4.333 37.046 33.942 65.74 70.412 69.817zM566.61 505.659c-35.978 4.021-73.25 4.021-109.228 0-0.668-0.075-1.329-0.377-1.872-0.913-0.531-0.523-0.738-1.052-0.791-1.501-4.293-36.704-4.293-73.785 0-110.486 0.053-0.451 0.26-0.978 0.791-1.5 0.543-0.538 1.204-0.84 1.872-0.916 35.978-4.019 73.249-4.019 109.228 0 0.671 0.077 1.331 0.379 1.874 0.916 0.532 0.522 0.737 1.050 0.788 1.5 4.296 36.7 4.296 73.782 0 110.486-0.051 0.449-0.256 0.977-0.788 1.501-0.543 0.536-1.203 0.838-1.874 0.913zM448.852 581.984c41.647 4.655 84.642 4.655 126.288 0 36.475-4.077 66.079-32.771 70.415-69.817 4.987-42.632 4.987-85.697 0-128.331-4.337-37.043-33.94-65.741-70.415-69.816-41.646-4.654-84.641-4.654-126.288 0-36.471 4.076-66.079 32.773-70.412 69.816-4.986 42.634-4.986 85.7 0 128.331 4.333 37.046 33.942 65.74 70.412 69.817zM925.010 505.659c-35.978 4.021-73.252 4.021-109.225 0-0.671-0.075-1.331-0.377-1.874-0.913-0.532-0.523-0.737-1.052-0.794-1.501-4.291-36.704-4.291-73.785 0-110.486 0.056-0.451 0.261-0.978 0.794-1.5 0.543-0.538 1.203-0.84 1.874-0.916 35.973-4.019 73.247-4.019 109.225 0 0.671 0.077 1.331 0.379 1.874 0.916 0.532 0.522 0.737 1.050 0.788 1.5 4.296 36.7 4.296 73.782 0 110.486-0.051 0.449-0.256 0.977-0.788 1.501-0.543 0.536-1.203 0.838-1.874 0.913zM807.25 581.984c41.651 4.655 84.644 4.655 126.29 0 36.475-4.077 66.079-32.771 70.415-69.817 4.987-42.632 4.987-85.697 0-128.331-4.337-37.043-33.94-65.741-70.415-69.816-41.646-4.654-84.639-4.654-126.29 0-36.47 4.076-66.079 32.773-70.41 69.816-4.987 42.634-4.987 85.7 0 128.331 4.332 37.046 33.94 65.74 70.41 69.817zM208.211 147.261c-35.978 4.019-73.251 4.019-109.229 0-0.668-0.077-1.329-0.379-1.872-0.916-0.531-0.522-0.738-1.050-0.791-1.5-4.293-36.705-4.293-73.784 0-110.484 0.053-0.451 0.26-0.978 0.791-1.5 0.543-0.538 1.204-0.84 1.872-0.916 35.978-4.019 73.251-4.019 109.229 0 0.668 0.077 1.329 0.379 1.872 0.916 0.531 0.522 0.738 1.050 0.791 1.5 4.293 36.7 4.293 73.779 0 110.484-0.053 0.451-0.26 0.978-0.791 1.5-0.543 0.538-1.204 0.84-1.872 0.916zM90.452 223.585c41.647 4.654 84.642 4.654 126.289 0 36.471-4.076 66.079-32.773 70.412-69.816 4.986-42.634 4.986-85.699 0-128.333-4.333-37.043-33.942-65.741-70.412-69.816-41.647-4.654-84.642-4.654-126.289 0-36.471 4.076-66.079 32.773-70.412 69.816-4.986 42.634-4.986 85.699 0 128.333 4.333 37.043 33.942 65.741 70.412 69.816zM566.61 147.261c-35.978 4.019-73.25 4.019-109.228 0-0.668-0.077-1.329-0.379-1.872-0.916-0.531-0.522-0.738-1.050-0.791-1.5-4.293-36.705-4.293-73.784 0-110.484 0.053-0.451 0.26-0.978 0.791-1.5 0.543-0.538 1.204-0.84 1.872-0.916 35.978-4.019 73.249-4.019 109.228 0 0.671 0.077 1.331 0.379 1.874 0.916 0.532 0.522 0.737 1.050 0.788 1.5 4.296 36.7 4.296 73.779 0 110.484-0.051 0.451-0.256 0.978-0.788 1.5-0.543 0.538-1.203 0.84-1.874 0.916zM448.852 223.585c41.647 4.654 84.642 4.654 126.288 0 36.475-4.076 66.079-32.773 70.415-69.816 4.987-42.634 4.987-85.699 0-128.333-4.337-37.043-33.94-65.741-70.415-69.816-41.646-4.654-84.641-4.654-126.288 0-36.471 4.076-66.079 32.773-70.412 69.816-4.986 42.634-4.986 85.699 0 128.333 4.333 37.043 33.942 65.741 70.412 69.816zM925.010 147.261c-35.978 4.019-73.252 4.019-109.225 0-0.671-0.077-1.331-0.379-1.874-0.916-0.532-0.522-0.737-1.050-0.794-1.5-4.291-36.705-4.291-73.784 0-110.484 0.056-0.451 0.261-0.978 0.794-1.5 0.543-0.538 1.203-0.84 1.874-0.916 35.973-4.019 73.247-4.019 109.225 0 0.671 0.077 1.331 0.379 1.874 0.916 0.532 0.522 0.737 1.050 0.788 1.5 4.296 36.7 4.296 73.779 0 110.484-0.051 0.451-0.256 0.978-0.788 1.5-0.543 0.538-1.203 0.84-1.874 0.916zM807.25 223.585c41.651 4.654 84.644 4.654 126.29 0 36.475-4.076 66.079-32.773 70.415-69.816 4.987-42.634 4.987-85.699 0-128.333-4.337-37.043-33.94-65.741-70.415-69.816-41.646-4.654-84.639-4.654-126.29 0-36.47 4.076-66.079 32.773-70.41 69.816-4.987 42.634-4.987 85.699 0 128.333 4.332 37.043 33.94 65.741 70.41 69.816z" />
<glyph unicode="&#xe923;" glyph-name="36" horiz-adv-x="788" d="M444.719 905.846v-38.154h28.357c113.193 0 206.878-88.009 213.943-200.982l11.244-179.753c4.285-68.533 27.296-134.579 66.521-190.941 35.44-50.926 3.889-121.259-57.712-128.652l-173.328-20.799v-54.668c0-77.265-62.633-139.898-139.896-139.898-77.265 0-139.898 62.633-139.898 139.898v54.668l-173.327 20.799c-61.602 7.392-93.154 77.726-57.712 128.652 39.225 56.361 62.234 122.407 66.521 190.941l11.243 179.753c7.066 112.973 100.751 200.982 213.944 200.982h28.357v38.154c0 28.096 22.776 50.872 50.873 50.872 28.095 0 50.871-22.776 50.871-50.872zM314.618 791.385c-72.899 0-133.234-56.68-137.785-129.438l-11.243-179.753c-5.158-82.469-32.845-161.944-80.047-229.766-2.562-3.68-0.281-8.765 4.171-9.299l190.142-22.817c75.721-9.086 152.259-9.086 227.98 0l190.143 22.817c4.452 0.534 6.733 5.618 4.171 9.299-47.2 67.822-74.888 147.296-80.047 229.766l-11.242 179.753c-4.551 72.757-64.886 129.438-137.785 129.438h-158.458zM393.848 28.308c35.119 0 63.588 28.469 63.588 63.59v38.154h-127.179v-38.154c0-35.121 28.469-63.59 63.59-63.59z" />
<glyph unicode="&#xe924;" glyph-name="37" horiz-adv-x="1004" d="M552.612 925.577c-35.506 18.532-83.618 18.817-119.409 0.334-137.185-70.85-261.615-152.084-370.654-242.185-16.862-13.933-28.828-34.179-28.624-58.010 0.203-23.734 12.413-43.71 29.173-57.414 108.133-88.416 232.666-169.724 367.339-240.013 35.506-18.532 83.62-18.817 119.411-0.334 137.185 70.851 261.614 152.084 370.653 242.184 16.861 13.935 28.828 34.181 28.625 58.012-0.205 23.734-12.415 43.71-29.174 57.414-108.132 88.416-232.665 169.724-367.34 240.013zM469.619 855.399c12.679 6.548 33.509 6.486 46.275-0.176 128.528-67.081 246.956-144.257 349.553-227.615-103.211-84.699-221.284-161.624-352.016-229.14-12.679-6.55-33.507-6.488-46.275 0.176-128.526 67.080-246.954 144.255-349.552 227.613 103.21 84.701 221.286 161.626 352.016 229.143zM978.108 431.546c11.606-18.59 5.945-43.067-12.644-54.673l-323.113-201.726c-43.846-27.374-98.245-40.030-150.831-40.034-52.586-0.002-106.988 12.646-150.839 40.016l-319.574 199.444c-18.591 11.602-24.256 36.080-12.654 54.669 11.603 18.592 36.080 24.257 54.671 12.655l319.574-199.444c28.789-17.967 67.897-27.982 108.818-27.98s80.024 10.023 108.806 27.992l323.115 201.726c18.588 11.606 43.065 5.945 54.671-12.644zM978.106 232.901c11.608-18.588 5.949-43.067-12.638-54.673l-279.818-174.744c-55.955-34.945-125.95-51.384-194.132-51.388s-138.181 16.427-194.144 51.364l-276.271 172.466c-18.59 11.604-24.252 36.082-12.647 54.671s36.082 24.252 54.672 12.648l276.271-172.466c40.899-25.53 95.601-39.328 152.115-39.324 56.515 0.002 111.21 13.806 152.101 39.34l279.818 174.744c18.588 11.608 43.065 5.949 54.673-12.638z" />
<glyph unicode="&#xe925;" glyph-name="38" horiz-adv-x="942" d="M428.648 946c26.366 14.647 58.425 14.647 84.789 0l380.928-211.626c27.714-15.397 44.902-44.607 44.902-76.311v-420.127c0-31.703-17.189-60.914-44.902-76.311l-380.926-211.626c-26.366-14.647-58.425-14.647-84.791 0l-380.927 211.626c-27.713 15.397-44.901 44.607-44.901 76.311v420.127c0 31.703 17.188 60.914 44.901 76.311l380.927 211.626zM474.898 876.627c-2.398 1.332-5.313 1.332-7.709 0l-380.928-211.627c-2.519-1.399-4.082-4.055-4.082-6.937v-420.127c0-2.882 1.562-5.538 4.082-6.937l380.928-211.626c2.396-1.333 5.313-1.333 7.709 0l380.928 211.626c2.519 1.399 4.082 4.055 4.082 6.937v420.127c0 2.882-1.563 5.538-4.082 6.937l-380.928 211.627zM219.738 448c0 138.793 112.513 251.306 251.306 251.306s251.306-112.513 251.306-251.306c0-138.793-112.513-251.306-251.306-251.306s-251.306 112.513-251.306 251.306zM471.044 619.946c-94.964 0-171.946-76.982-171.946-171.946s76.982-171.946 171.946-171.946c94.964 0 171.946 76.982 171.946 171.946s-76.982 171.946-171.946 171.946z" />
<glyph unicode="&#xe926;" glyph-name="39" horiz-adv-x="1302" d="M9.7 578.090c0 216.099 207.229 379.277 446.65 379.277 190.528 0 359.455-102.587 421.524-253.197 2.784-6.755-2.061-14.083-9.342-14.686-20.277-1.676-40.413-4.557-60.259-8.584-5.067-1.030-10.18 1.555-12.445 6.204-52.48 107.735-181.387 188.574-339.478 188.574-208.82 0-364.962-139.865-364.962-297.589 0-85.209 44.325-163.893 118.857-219.525 10.328-7.709 16.412-19.842 16.412-32.731v-51.231l84.283 23.431c7.341 2.041 15.105 1.987 22.417-0.154 33.26-9.738 68.811-15.657 105.889-17.055 5.884-0.222 10.623-4.956 10.878-10.838 1.011-23.303 4.131-45.812 9.156-67.454 0.439-1.891-0.986-3.711-2.929-3.719-46.782 0-91.98 6.102-134.504 17.465l-125.093-34.775c-12.3-3.419-25.489-0.891-35.653 6.833-10.164 7.722-16.131 19.754-16.131 32.519v85.13c-82.225 67.866-135.269 163.89-135.269 272.105zM369.393 684.635c0-32.018-25.955-57.972-57.973-57.972s-57.972 25.954-57.972 57.972c0 32.018 25.954 57.973 57.972 57.973s57.973-25.955 57.973-57.973zM601.281 626.663c32.018 0 57.973 25.954 57.973 57.972s-25.955 57.973-57.973 57.973c-32.018 0-57.972-25.955-57.972-57.973s25.954-57.972 57.972-57.972zM788.24 307.814c28.014 0 50.725 22.711 50.725 50.726s-22.711 50.726-50.725 50.726c-28.015 0-50.726-22.711-50.726-50.726s22.711-50.726 50.726-50.726zM1085.349 358.54c0-28.015-22.711-50.726-50.726-50.726s-50.725 22.711-50.725 50.726c0 28.015 22.709 50.726 50.725 50.726s50.726-22.711 50.726-50.726zM910.207 597.475c202.067 0 379.016-137.924 379.016-322.872 0-91.43-44.038-160.358-112.466-217.882v-67.752c0-12.766-5.968-24.797-16.132-32.521-10.162-7.722-23.353-10.25-35.651-6.832l-102.464 28.483c-35.485-9.317-73.127-14.308-112.045-14.308-202.067 0-379.015 137.925-379.015 322.872 0 184.948 176.69 310.812 378.757 310.812zM1207.792 286.663c0 126.572-125.86 241.184-297.327 241.184-171.466 0-297.327-114.612-297.327-241.184s125.861-241.183 297.327-241.183c35.407 0 69.255 5.034 100.583 14.207 7.311 2.14 15.076 2.194 22.417 0.154l61.604-17.126v33.733c0 12.889 6.084 25.022 16.413 32.731 60.694 45.305 96.31 108.978 96.31 177.483z" />
<glyph unicode="&#xe927;" glyph-name="40" horiz-adv-x="1317" d="M33.656 95.517c-16.207 16.808-20 42.035-9.453 62.866l51.31 101.328c121.437 239.822 367.413 390.982 636.228 390.982h25.224c1.843 39.964 4.22 79.909 7.124 119.825l4.966 68.070c4.030 55.356 65.755 86.3 112.53 56.415 153.424-98.038 286.808-224.362 393.033-372.239l33.36-46.441c13.744-19.125 13.744-44.885 0-64.010l-33.36-46.441c-106.225-147.877-239.609-274.202-393.033-372.236-46.775-29.886-108.5 1.053-112.53 56.415l-4.966 68.067c-3.474 47.667-6.181 95.378-8.133 143.113-157.245 4.539-314.298-27.199-458.635-93.814l-181.189-83.624c-21.2-9.787-46.269-5.076-62.476 11.725zM195.905 250.675l35.439 16.357c176.358 81.395 369.859 115.758 561.868 101.011 27.963-2.147 49.803-25.042 50.629-53.075 1.865-63.003 5.091-125.975 9.677-188.87l0.395-5.449c120.21 84.97 225.551 189.443 311.603 309.233l10.372 14.436-10.372 14.437c-86.053 119.789-191.393 224.266-311.603 309.233l-0.395-5.445c-4.096-56.145-7.102-112.35-9.026-168.582-1.009-29.549-25.256-52.981-54.828-52.981h-77.923c-211.918 0-407.061-111.024-515.836-290.304z" />
</font>
</defs>
</svg>
